Панель пользователя
Регистрация

Воспользуйтесь социальными сетями для входа на https://freerutor.com

vk odnoklassniki facebook mailru yandex google
Популярное
Счетчик
Голосуй за нас
VIP на сайте
Популярное
Товары интернет магазина
загрузка...

Папашина армия (2016) BDRip-AVC | Лицензия | R.G.Resident

Папашина армия (2016) BDRip-AVC | Лицензия | R.G.Resident
Участники торрент обмена
Сидов Пиров Скачали
1 0 79
Характеристика
Размер Файлы
2.38 GB
Релиз группа
Поделиться раздачей
Фильмы (AVC)
Наименование: Папашина армия
Оригинальное наименование: Dad's Army
Категория: комедия, военный
Произведено: Великобритания
Режиссер постановщик: Оливер Паркер
В главных ролях: Кэтрин Зета-Джонс, Билл Найи, Майкл Гэмбон, Тоби Джонс, Сара Ланкашир, Марк Гейтисс, Дэниэл Мейс, Элисон Стэдмен, Том Кортни, Блейк Харрисон
Краткое описание: Англия. Вторая мировая война. Журналистка для освещения военных действий отправляется в прибрежный город, где располагается взвод, охраняющий побережье....
  • Видео данные: MPEG-4 AVC, 2513 Кбит/с, 1024x428
    Аудио данные: Русский (AC3, 6 ch, 448 Кбит/с), английский (АС3, 6 ch, 448 Кбит/с)
    Перевод: Дубляж - [Лицензия] BD CEE
    Продолжительность: 01:39:53
    Субтитры: английские (Full), английские (SDH)
  • Папашина армия (2016) BDRip-AVC | Лицензия | R.G.Resident Папашина армия (2016) BDRip-AVC | Лицензия | R.G.Resident Папашина армия (2016) BDRip-AVC | Лицензия | R.G.Resident
  • General
    Unique ID : 233174587596417080445528530438181343485 (0xAF6BCAC3EEFBE3BEA49D271DC89BD0FD)
    Complete name : D:\download\Dad's.Army.2016.BDRip-AVC by schultz R.G.Resident.mkv
    Format : Matroska
    Format version : Version 4 / Version 2
    File size : 2.38 GiB
    Duration : 1 h 39 min
    Overall bit rate : 3 411 kb/s
    Encoded date : UTC 2016-09-18 10:26:49
    Writing application : mkvmerge v8.9.0 ('Father Daughter') 64bit
    Writing library : libebml v1.3.3 + libmatroska v1.4.4

    Video
    ID : 1
    Format : AVC
    Format/Info : Advanced Video Codec
    Format profile : High@L4.1
    Format settings, CABAC : Yes
    Format settings, ReFrames : 12 frames
    Codec ID : V_MPEG4/ISO/AVC
    Duration : 1 h 39 min
    Bit rate : 2 513 kb/s
    Width : 1 024 pixels
    Height : 428 pixels
    Display aspect ratio : 2.40:1
    Frame rate mode : Constant
    Frame rate : 23.976 (23976/1000) FPS
    Color space : YUV
    Chroma subsampling : 4:2:0
    Bit depth : 8 bits
    Scan type : Progressive
    Bits/(Pixel*Frame) : 0.239
    Stream size : 1.75 GiB (75%)
    Writing library : x264 core 146 r2538 121396c
    Encoding settings : cabac=1 / ref=12 / deblock=1:-3:-3 / analyse=0x3:0x113 / me=umh / subme=11 / psy=1 / psy_rd=1.00:0.00 / mixed_ref=1 / me_range=48 / chroma_me=1 / trellis=2 / 8x8dct=1 / cqm=0 / deadzone=21,11 / fast_pskip=0 / chroma_qp_offset=-2 / threads=12 / lookahead_threads=3 / sliced_threads=0 / nr=0 / decimate=0 / interlaced=0 / bluray_compat=0 / constrained_intra=0 / bframes=11 / b_pyramid=2 / b_adapt=2 / b_bias=0 / direct=3 / weightb=1 / open_gop=0 / weightp=2 / keyint=240 / keyint_min=23 / scenecut=40 / intra_refresh=0 / rc_lookahead=40 / rc=2pass / mbtree=1 / bitrate=2513 / ratetol=1.0 / qcomp=0.60 / qpmin=0 / qpmax=69 / qpstep=4 / cplxblur=20.0 / qblur=0.5 / vbv_maxrate=50000 / vbv_bufsize=62500 / nal_hrd=none / filler=0 / ip_ratio=1.40 / aq=1:1.00
    Language : English
    Default : Yes
    Forced : No

    Audio #1
    ID : 2
    Format : AC-3
    Format/Info : Audio Coding 3
    Mode extension : CM (complete main)
    Format settings, Endianness : Big
    Codec ID : A_AC3
    Duration : 1 h 39 min
    Bit rate mode : Constant
    Bit rate : 448 kb/s
    Channel(s) : 6 channels
    Channel positions : Front: L C R, Side: L R, LFE
    Sampling rate : 48.0 kHz
    Frame rate : 31.250 FPS (1536 spf)
    Compression mode : Lossy
    Stream size : 274 MiB (11%)
    Language : Russian
    Default : Yes
    Forced : No

    Audio #2
    ID : 3
    Format : AC-3
    Format/Info : Audio Coding 3
    Mode extension : CM (complete main)
    Format settings, Endianness : Big
    Codec ID : A_AC3
    Duration : 1 h 39 min
    Bit rate mode : Constant
    Bit rate : 448 kb/s
    Channel(s) : 6 channels
    Channel positions : Front: L C R, Side: L R, LFE
    Sampling rate : 48.0 kHz
    Frame rate : 31.250 FPS (1536 spf)
    Compression mode : Lossy
    Stream size : 320 MiB (13%)
    Language : English
    Default : No
    Forced : No

    Text #1
    ID : 4
    Format : UTF-8
    Codec ID : S_TEXT/UTF8
    Codec ID/Info : UTF-8 Plain Text
    Duration : 1 h 37 min
    Bit rate : 62 b/s
    Count of elements : 1498
    Stream size : 44.3 KiB (0%)
    Title : Full
    Language : English
    Default : No
    Forced : No

    Text #2
    ID : 5
    Format : UTF-8
    Codec ID : S_TEXT/UTF8
    Codec ID/Info : UTF-8 Plain Text
    Duration : 1 h 38 min
    Bit rate : 67 b/s
    Count of elements : 1704
    Stream size : 48.8 KiB (0%)
    Title : SDH
    Language : English
    Default : No
    Forced : No

    Menu
    00:00:00.000 : en:Chapter 01
    00:03:59.906 : en:Chapter 02
    00:07:50.220 : en:Chapter 03
    00:14:23.071 : en:Chapter 04
    00:18:36.574 : en:Chapter 05
    00:23:29.992 : en:Chapter 06
    00:27:39.449 : en:Chapter 07
    00:32:51.261 : en:Chapter 08
    00:38:16.586 : en:Chapter 09
    00:43:58.177 : en:Chapter 10
    00:47:32.433 : en:Chapter 11
    00:54:25.721 : en:Chapter 12
    00:57:55.305 : en:Chapter 13
    01:02:06.806 : en:Chapter 14
    01:06:10.884 : en:Chapter 15
    01:11:01.549 : en:Chapter 16
    01:17:48.247 : en:Chapter 17
    01:23:16.783 : en:Chapter 18
    01:31:48.294 : en:Chapter 19
    01:35:52.705 : en:Chapter 20
4.4 из 10
голосов: 8
/10
/10
Раздачу отредактировал: schultz - 18-09-2016, 13:58
По причине: (замена на лицензию BD CEE)
schultz 18-09-2016, 13:52
Информация
Посетители, находящиеся в группе Гости, не могут оставлять комментарии к данной публикации.