Панель пользователя
Регистрация

Воспользуйтесь социальными сетями для входа на https://freerutor.com

vk odnoklassniki facebook mailru yandex google
Популярное
Счетчик
Голосуй за нас
VIP на сайте
Популярное
Товары интернет магазина
загрузка...

Разрушение (2015) BDRemux 1080p | Лицензия

Разрушение (2015) BDRemux 1080p | Лицензия
Участники торрент обмена
Сидов Пиров Скачали
5 1 177
Характеристика
Размер Файлы
16.02 GB
Релиз группа
Поделиться раздачей
Фильмы (720,1080,Blu-Ray)
Наименование: Разрушение
Оригинальное наименование: Demolition
Категория: Драма
Произведено: США, Black Label Media, Mr. Mudd, Right of Way Films, Sidney Kimmel Entertainment
Режиссер: Жан-Марк Валле
В главных ролях: Джейк Джилленхол, Наоми Уоттс, Крис Купер, Джуда Льюис, С.Дж. Уилсон, Полли Дрэйпер, Мэлаки Клири, Дебра Монк, Хезер Линд, Уасс М. Стивенс
Краткое описание: Когда банкир Дэвис узнал, что его жена мертва, он захотел купить шоколадный батончик в торговом автомате, но тот оказался сломан. Переживая горе, Дэвис начинает крушить дом, мебель, машину, строчить жалобы в обслуживающую торговые автоматы фирму. А в письмах он… рассказывает историю своей любви. Скоро ему отвечает Карен, менеджер компании, но сможет ли она спасти Дэвиса из эмоциональной пропасти?...
  • Видео данные: MPEG-4 AVC, 19.1 Mбит/с, 1920x1080
    Аудио данные: Русский (DTS-HD MA, 6 ch, 3072 Кбит/с), (AC3, 6 ch, 640 Кбит/с)
    Перевод: Дублированный [лицензия]
    Продолжительность: 01:40:26
    Релиз без рекламы.
  • Разрушение (2015) BDRemux 1080p | Лицензия Разрушение (2015) BDRemux 1080p | Лицензия Разрушение (2015) BDRemux 1080p | Лицензия
  • Общее
    Уникальный идентификатор : 208349100904973136854519991879370461346 (0x9CBE93C57858408481FA31ADD18ED0A2)
    Полное имя : G:VideoDemolition.2015.D.BDREMUX.1080p.ExKinoRay.mkv
    Формат : Matroska
    Версия формата : Version 4 / Version 2
    Размер файла : 16,0 Гбайт
    Продолжительность : 1 ч. 40 м.
    Режим общего битрейта : Переменный
    Общий поток : 22,8 Мбит/сек
    Название фильма : build by ***селезень***
    Дата кодирования : UTC 2016-09-17 03:00:07
    Программа кодирования : mkvmerge v8.3.0 ('Over the Horizon') 64bit
    Библиотека кодирования : libebml v1.3.1 + libmatroska v1.4.2

    Видео
    Идентификатор : 1
    Формат : AVC
    Формат/Информация : Advanced Video Codec
    Профиль формата : High@L4
    Параметр CABAC формата : Да
    Параметр ReFrames формата : 2 кадра
    Параметр GOP формата : M=2, N=13
    Идентификатор кодека : V_MPEG4/ISO/AVC
    Продолжительность : 1 ч. 40 м.
    Вид битрейта : Переменный
    Битрейт : 19,1 Мбит/сек
    Максимальный битрейт : 22,0 Мбит/сек
    Ширина : 1920 пикселей
    Высота : 1080 пикселей
    Соотношение сторон : 16:9
    Режим частоты кадров : Постоянный
    Частота кадров : 24,000 кадра/сек
    Цветовое пространство : YUV
    Субдискретизация насыщенности : 4:2:0
    Битовая глубина : 8 бит
    Тип развёртки : Прогрессивная
    Бит/(Пиксели*Кадры) : 0.385
    Размер потока : 13,4 Гбайт (84%)
    Заголовок : build by ***селезень***
    Язык : Russian
    Default : Да
    Forced : Нет

    Аудио #1
    Идентификатор : 2
    Формат : DTS
    Формат/Информация : Digital Theater Systems
    Профиль формата : MA / Core
    Режим : 16
    Параметр Endianness формата : Big
    Идентификатор кодека : A_DTS
    Продолжительность : 1 ч. 40 м.
    Вид битрейта : Переменный / Постоянный
    Битрейт : 3072 Кбит/сек / 1509 Кбит/сек
    Каналы : 6 каналов
    Расположение каналов : Front: L C R, Side: L R, LFE
    Частота : 48,0 КГц
    Частота кадров : 93,750 кадра/сек (512 spf)
    Битовая глубина : 24 бит
    Метод сжатия : Без потерь / Lossy
    Размер потока : 2,14 Гбайт (13%)
    Заголовок : Dub-DTS-HD MA [License]
    Язык : Russian
    Default : Да
    Forced : Нет

    Аудио #2
    Идентификатор : 3
    Формат : AC-3
    Формат/Информация : Audio Coding 3
    Расширение режима : CM (complete main)
    Параметр Endianness формата : Big
    Идентификатор кодека : A_AC3
    Продолжительность : 1 ч. 40 м.
    Вид битрейта : Постоянный
    Битрейт : 640 Кбит/сек
    Каналы : 6 каналов
    Расположение каналов : Front: L C R, Side: L R, LFE
    Частота : 48,0 КГц
    Частота кадров : 31,250 кадров/сек (1536 spf)
    Метод сжатия : С потерями
    Размер потока : 460 Мбайт (3%)
    Заголовок : Dub-AC3 [License]
    Язык : Russian
    Default : Нет
    Forced : Нет

    Меню
    00:00:00.000 : en:Chapter 01
    00:03:59.906 : en:Chapter 02
    00:07:50.220 : en:Chapter 03
    00:14:23.071 : en:Chapter 04
    00:18:36.574 : en:Chapter 05
    00:23:29.992 : en:Chapter 06
    00:27:39.449 : en:Chapter 07
    00:32:51.261 : en:Chapter 08
    00:38:16.586 : en:Chapter 09
    00:43:58.177 : en:Chapter 10
    00:47:32.433 : en:Chapter 11
    00:54:25.721 : en:Chapter 12
    00:57:55.305 : en:Chapter 13
    01:02:06.806 : en:Chapter 14
    01:06:10.884 : en:Chapter 15
    01:11:01.549 : en:Chapter 16
    01:17:48.247 : en:Chapter 17
    01:23:16.783 : en:Chapter 18
    01:31:48.294 : en:Chapter 19
    01:35:52.705 : en:Chapter 20
10.0 из 10
голосов: 3
/10
/10
616759 17-09-2016, 07:49
Информация
Посетители, находящиеся в группе Гости, не могут оставлять комментарии к данной публикации.