Панель пользователя
Регистрация

Воспользуйтесь социальными сетями для входа на https://freerutor.com

vk odnoklassniki facebook mailru yandex google
Популярное
Счетчик
Голосуй за нас
VIP на сайте
Популярное
Товары интернет магазина
загрузка...

Полтора шпиона (2016) BDRip 720р | iTunes | R.G.Resident

Полтора шпиона (2016) BDRip 720р | iTunes | R.G.Resident
Участники торрент обмена
Сидов Пиров Скачали
3 0 911
Характеристика
Размер Файлы
5.41 GB
Релиз группа
Поделиться раздачей
Фильмы (720,1080,Blu-Ray)
Наименование: Полтора шпиона
Оригинальное наименование: Central Intelligence
Категория: боевик, комедия, криминал
Произведено: США
Режиссер постановщик: Роусон Маршалл Тёрбер
В главных ролях: Дуэйн Джонсон, Кевин Харт, Эми Райан, Даниэль Николет, Джейсон Бейтмен, Аарон Пол, Райан Хансен, Тим Гриффин, Тимоти Джон Смит
Краткое описание: От лайка в соцсети до спасения мира - один шаг. Сегодня ты френдишь бывшего одноклассника, а завтра - он тащит тебя под пули. Кто ж знал, что заядлый любитель пончиков превратится в похожего на скалу супершпиона.
  • Видео данные: MPEG-4 AVC, 5300 Кбит/с, 1280x534
    Аудио данные: Русский (AC3, 6 ch, 384 Кбит/с), английский (DTS, 6 ch, 1509 Кбит/с)
    Перевод: Дубляж - [iTunes]
    Продолжительность: 01:47:37
    Субтитры: русские (Forced), русские (Full), английские (Full)
  • Полтора шпиона (2016) BDRip 720р | iTunes | R.G.Resident Полтора шпиона (2016) BDRip 720р | iTunes | R.G.Resident Полтора шпиона (2016) BDRip 720р | iTunes | R.G.Resident
  • x264 [info]: frame I:1651 Avg QP:13.17 size:153568
    x264 [info]: frame P:36533 Avg QP:16.86 size: 53978
    x264 [info]: frame B:116646 Avg QP:18.73 size: 17580

    General
    Unique ID : 170325896626058874944172976694755092565 (0x8023930FEB930CC6A138705E464C6855)
    Complete name : D:downloadCentral.Intelligence.2016.BDRip 720р by schultz R.G.Resident.mkv
    Format : Matroska
    Format version : Version 4 / Version 2
    File size : 5.41 GiB
    Duration : 1 h 47 min
    Overall bit rate : 7 193 kb/s
    Encoded date : UTC 2016-09-16 08:07:24
    Writing application : mkvmerge v8.9.0 ('Father Daughter') 64bit
    Writing library : libebml v1.3.3 + libmatroska v1.4.4

    Video
    ID : 1
    Format : AVC
    Format/Info : Advanced Video Codec
    Format profile : High@L4.1
    Format settings, CABAC : Yes
    Format settings, ReFrames : 12 frames
    Codec ID : V_MPEG4/ISO/AVC
    Duration : 1 h 47 min
    Bit rate : 5 300 kb/s
    Width : 1 280 pixels
    Height : 534 pixels
    Display aspect ratio : 2.40:1
    Frame rate mode : Constant
    Frame rate : 23.976 (23976/1000) FPS
    Color space : YUV
    Chroma subsampling : 4:2:0
    Bit depth : 8 bits
    Scan type : Progressive
    Bits/(Pixel*Frame) : 0.323
    Stream size : 3.98 GiB (74%)
    Writing library : x264 core 146 r2538 121396c
    Encoding settings : cabac=1 / ref=12 / deblock=1:-3:-3 / analyse=0x3:0x113 / me=umh / subme=11 / psy=1 / psy_rd=1.00:0.00 / mixed_ref=1 / me_range=48 / chroma_me=1 / trellis=2 / 8x8dct=1 / cqm=0 / deadzone=21,11 / fast_pskip=0 / chroma_qp_offset=-2 / threads=12 / lookahead_threads=3 / sliced_threads=0 / nr=0 / decimate=0 / interlaced=0 / bluray_compat=0 / constrained_intra=0 / bframes=11 / b_pyramid=2 / b_adapt=2 / b_bias=0 / direct=3 / weightb=1 / open_gop=0 / weightp=2 / keyint=240 / keyint_min=23 / scenecut=40 / intra_refresh=0 / rc_lookahead=40 / rc=2pass / mbtree=1 / bitrate=5300 / ratetol=1.0 / qcomp=0.60 / qpmin=0 / qpmax=69 / qpstep=4 / cplxblur=20.0 / qblur=0.5 / vbv_maxrate=50000 / vbv_bufsize=62500 / nal_hrd=none / filler=0 / ip_ratio=1.40 / aq=1:1.00
    Language : English
    Default : Yes
    Forced : No

    Audio #1
    ID : 2
    Format : AC-3
    Format/Info : Audio Coding 3
    Mode extension : CM (complete main)
    Format settings, Endianness : Big
    Codec ID : A_AC3
    Duration : 1 h 47 min
    Bit rate mode : Constant
    Bit rate : 384 kb/s
    Channel(s) : 6 channels
    Channel positions : Front: L C R, Side: L R, LFE
    Sampling rate : 48.0 kHz
    Frame rate : 31.250 FPS (1536 spf)
    Compression mode : Lossy
    Stream size : 295 MiB (5%)
    Language : Russian
    Default : Yes
    Forced : No

    Audio #2
    ID : 3
    Format : DTS
    Format/Info : Digital Theater Systems
    Mode : 16
    Format settings, Endianness : Big
    Codec ID : A_DTS
    Duration : 1 h 47 min
    Bit rate mode : Constant
    Bit rate : 1 509 kb/s
    Channel(s) : 6 channels
    Channel positions : Front: L C R, Side: L R, LFE
    Sampling rate : 48.0 kHz
    Frame rate : 93.750 FPS (512 spf)
    Bit depth : 24 bits
    Compression mode : Lossy
    Stream size : 1.13 GiB (21%)
    Language : English
    Default : No
    Forced : No

    Text #1
    ID : 4
    Format : UTF-8
    Codec ID : S_TEXT/UTF8
    Codec ID/Info : UTF-8 Plain Text
    Duration : 1 h 38 min
    Bit rate : 4 b/s
    Count of elements : 62
    Stream size : 3.08 KiB (0%)
    Title : Forced
    Language : Russian
    Default : Yes
    Forced : No

    Text #2
    ID : 5
    Format : UTF-8
    Codec ID : S_TEXT/UTF8
    Codec ID/Info : UTF-8 Plain Text
    Duration : 1 h 46 min
    Bit rate : 138 b/s
    Count of elements : 2048
    Stream size : 108 KiB (0%)
    Title : Full
    Language : Russian
    Default : No
    Forced : No

    Text #3
    ID : 6
    Format : UTF-8
    Codec ID : S_TEXT/UTF8
    Codec ID/Info : UTF-8 Plain Text
    Duration : 1 h 45 min
    Bit rate : 83 b/s
    Count of elements : 2273
    Stream size : 64.6 KiB (0%)
    Title : Full
    Language : English
    Default : No
    Forced : No

    Menu
    00:00:00.000 : en:00:00:00.000
    00:09:32.238 : en:00:09:32.238
    00:21:47.848 : en:00:21:47.848
    00:32:26.861 : en:00:32:26.861
    00:47:37.104 : en:00:47:37.104
    00:57:28.528 : en:00:57:28.528
    01:03:15.750 : en:01:03:15.750
    01:17:23.222 : en:01:17:23.222
    01:26:11.541 : en:01:26:11.541
    01:36:29.992 : en:01:36:29.992
    01:48:21.411 : en:01:48:21.411
7.0 из 10
голосов: 3
/10
/10
schultz 16-09-2016, 12:02
Информация
Посетители, находящиеся в группе Гости, не могут оставлять комментарии к данной публикации.