Панель пользователя
Регистрация

Воспользуйтесь социальными сетями для входа на https://freerutor.com

vk odnoklassniki facebook mailru yandex google
Популярное
Счетчик
Голосуй за нас
VIP на сайте
Популярное
Товары интернет магазина
загрузка...

Свадебный угар (2016) BDRip 1080p | Лицензия

Свадебный угар (2016) BDRip  1080p | Лицензия
Участники торрент обмена
Сидов Пиров Скачали
8 0 1059
Характеристика
Размер Файлы
8.79 GB
Поделиться раздачей
Фильмы (720,1080,Blu-Ray)
Наименование: Свадебный угар
Оригинальное наименование: Mike and Dave Need Wedding Dates
Произведено: США
Категория: мелодрама, комедия, приключения
Режиссер постановщик: Джейк Зиманский
В главных ролях: Зак Эфрон, Адам Дивайн, Анна Кендрик, Обри Плаза, Стивен Рут, Стефани Фэраси, Стефани Бирд, Сэм Ричардсон, Элис Веттерлунд, Лавелл Кроуфорд
Краткое описание: Братья-тусовщики Майк и Дэйв дают в интернете объявление о поиске пар, чтобы отправиться на свадьбу сестры на Гавайях. Они надеются на дикий отрыв, но выбранный ими дуэт девушек оказывается совершенно неконтролируемым, готовым превратить праздник в настоящий ад.
  • Видео данные: MPEG-4 AVC, 10.1Mбит/с, 1920x804
    Аудио данные: Русский (DTS, 6 ch, 768 Кбит/с), (AC3, 6 ch, 448 Кбит/с), английский (DTS, 6 ch, 1510 Кбит/с)
    Перевод: Дублированный (Лицензия)
    Субтитры: Русские, английские
    Продолжительность: 01:38:37
  • Свадебный угар (2016) BDRip  1080p | Лицензия Свадебный угар (2016) BDRip  1080p | Лицензия Свадебный угар (2016) BDRip  1080p | Лицензия
  • General
    Unique ID : 222282417289405033432173089236713832499 (0xA73A094EAEA1C3DB8A2F61926D258033)
    Complete name : H:VideoНовая папка (2)Mike.and.Dave.Need.Wedding.Dates.2016.BDRip.1080p.ExKinoRay.mkv
    Format : Matroska
    Format version : Version 4 / Version 2
    File size : 8.79 GiB
    Duration : 1 h 38 min
    Overall bit rate : 12.8 Mb/s
    Movie name : ***селезень***
    Encoded date : UTC 2016-09-27 19:49:25
    Writing application : mkvmerge v8.3.0 ('Over the Horizon') 64bit
    Writing library : libebml v1.3.1 + libmatroska v1.4.2

    Video
    ID : 1
    Format : AVC
    Format/Info : Advanced Video Codec
    Format profile : High@L4.1
    Format settings, CABAC : Yes
    Format settings, ReFrames : 5 frames
    Codec ID : V_MPEG4/ISO/AVC
    Duration : 1 h 38 min
    Bit rate : 10.1 Mb/s
    Width : 1 920 pixels
    Height : 804 pixels
    Display aspect ratio : 2.40:1
    Frame rate mode : Constant
    Frame rate : 23.976 (24000/1001) FPS
    Color space : YUV
    Chroma subsampling : 4:2:0
    Bit depth : 8 bits
    Scan type : Progressive
    Bits/(Pixel*Frame) : 0.272
    Stream size : 6.91 GiB (79%)
    Title : ***селезень***
    Writing library : x264 core 146 r2538 121396c
    Encoding settings : cabac=1 / ref=5 / deblock=1:-3:-3 / analyse=0x3:0x133 / me=umh / subme=11 / psy=1 / psy_rd=1.05:0.05 / mixed_ref=1 / me_range=32 / chroma_me=1 / trellis=2 / 8x8dct=1 / cqm=0 / deadzone=21,11 / fast_pskip=0 / chroma_qp_offset=-3 / threads=6 / lookahead_threads=1 / sliced_threads=0 / nr=0 / decimate=0 / interlaced=0 / bluray_compat=0 / constrained_intra=0 / bframes=8 / b_pyramid=2 / b_adapt=2 / b_bias=0 / direct=3 / weightb=1 / open_gop=0 / weightp=2 / keyint=240 / keyint_min=23 / scenecut=40 / intra_refresh=0 / rc_lookahead=60 / rc=2pass / mbtree=1 / bitrate=10056 / ratetol=1.0 / qcomp=0.60 / qpmin=0 / qpmax=69 / qpstep=4 / cplxblur=20.0 / qblur=0.5 / vbv_maxrate=50000 / vbv_bufsize=62500 / nal_hrd=none / filler=0 / ip_ratio=1.40 / aq=1:0.80
    Language : English
    Default : Yes
    Forced : No

    Audio #1
    ID : 2
    Format : DTS
    Format/Info : Digital Theater Systems
    Mode : 16
    Format settings, Endianness : Big
    Codec ID : A_DTS
    Duration : 1 h 38 min
    Bit rate mode : Constant
    Bit rate : 768 kb/s
    Channel(s) : 6 channels
    Channel positions : Front: L C R, Side: L R, LFE
    Sampling rate : 48.0 kHz
    Frame rate : 93.750 FPS (512 spf)
    Bit depth : 24 bits
    Compression mode : Lossy
    Stream size : 541 MiB (6%)
    Title : Dub-DTS [Blu-Ray EUR]
    Language : Russian
    Default : Yes
    Forced : No

    Audio #2
    ID : 3
    Format : AC-3
    Format/Info : Audio Coding 3
    Mode extension : CM (complete main)
    Format settings, Endianness : Big
    Codec ID : A_AC3
    Duration : 1 h 38 min
    Bit rate mode : Constant
    Bit rate : 448 kb/s
    Channel(s) : 6 channels
    Channel positions : Front: L C R, Side: L R, LFE
    Sampling rate : 48.0 kHz
    Frame rate : 31.250 FPS (1536 spf)
    Compression mode : Lossy
    Stream size : 316 MiB (4%)
    Title : Dub-AC3 [Blu-Ray EUR]
    Language : Russian
    Default : No
    Forced : No

    Audio #3
    ID : 4
    Format : DTS
    Format/Info : Digital Theater Systems
    Mode : 16
    Format settings, Endianness : Big
    Codec ID : A_DTS
    Duration : 1 h 38 min
    Bit rate mode : Constant
    Bit rate : 1 509 kb/s
    Channel(s) : 6 channels
    Channel positions : Front: L C R, Side: L R, LFE
    Sampling rate : 48.0 kHz
    Frame rate : 93.750 FPS (512 spf)
    Bit depth : 24 bits
    Compression mode : Lossy
    Stream size : 1.04 GiB (12%)
    Title : Original
    Language : English
    Default : No
    Forced : No

    Text #1
    ID : 5
    Format : UTF-8
    Codec ID : S_TEXT/UTF8
    Codec ID/Info : UTF-8 Plain Text
    Duration : 1 h 37 min
    Bit rate : 149 b/s
    Count of elements : 2204
    Stream size : 107 KiB (0%)
    Title : Full
    Language : Russian
    Default : No
    Forced : No

    Text #2
    ID : 6
    Format : UTF-8
    Codec ID : S_TEXT/UTF8
    Codec ID/Info : UTF-8 Plain Text
    Duration : 1 h 37 min
    Bit rate : 97 b/s
    Count of elements : 2534
    Stream size : 69.9 KiB (0%)
    Title : Full
    Language : English
    Default : No
    Forced : No

    Text #3
    ID : 7
    Format : UTF-8
    Codec ID : S_TEXT/UTF8
    Codec ID/Info : UTF-8 Plain Text
    Duration : 1 h 38 min
    Bit rate : 103 b/s
    Count of elements : 2694
    Stream size : 74.4 KiB (0%)
    Title : SDH
    Language : English
    Default : No
    Forced : No

    Menu
    00:00:00.000 : en:Chapter 1
    00:03:39.511 : en:Chapter 2
    00:08:12.826 : en:Chapter 3
    00:11:26.102 : en:Chapter 4
    00:17:29.340 : en:Chapter 5
    00:22:33.477 : en:Chapter 6
    00:27:22.432 : en:Chapter 7
    00:31:29.179 : en:Chapter 8
    00:35:23.204 : en:Chapter 9
    00:38:17.212 : en:Chapter 10
    00:41:26.442 : en:Chapter 11
    00:44:25.538 : en:Chapter 12
    00:50:22.811 : en:Chapter 13
    00:54:12.833 : en:Chapter 14
    00:56:53.660 : en:Chapter 15
    01:01:16.131 : en:Chapter 16
    01:04:44.214 : en:Chapter 17
    01:08:24.058 : en:Chapter 18
    01:12:28.886 : en:Chapter 19
    01:16:33.339 : en:Chapter 20
    01:21:08.614 : en:Chapter 21
    01:25:30.542 : en:Chapter 22
    01:28:45.987 : en:Chapter 23
    01:33:51.084 : en:Chapter 24
7.8 из 10
голосов: 4
/10
/10
foster720p 26-09-2016, 18:14
Информация
Посетители, находящиеся в группе Гости, не могут оставлять комментарии к данной публикации.