Панель пользователя
Регистрация

Воспользуйтесь социальными сетями для входа на https://freerutor.com

vk odnoklassniki facebook mailru yandex google
Популярное
Счетчик
Голосуй за нас
VIP на сайте
Популярное
Товары интернет магазина
загрузка...

Полтора шпиона (2016) BD-Remux 1080p | iTunes

Полтора шпиона (2016) BD-Remux 1080p | iTunes
Участники торрент обмена
Сидов Пиров Скачали
5 0 1593
Характеристика
Размер Файлы
22.18 GB
Релиз группа
Поделиться раздачей
Фильмы (720,1080,Blu-Ray)
Наименование: Полтора шпиона
Оригинальное наименование: Central Intelligence
Категория: Боевик, комедия, криминал
Произведено: США / Universal Pictures, New Line Cinema
Режиссер постановщик: Роусон Маршалл Тёрбер
В главных ролях: Дуэйн Джонсон, Кевин Харт, Эми Райан, Даниэль Николет, Джейсон Бейтман, Аарон Пол, Райан Хансен, Тим Гриффин, Тимоти Джон Смит, Сион Келепи
Краткое описание: От лайка в соцсети до спасения мира - один шаг. Сегодня ты френдишь бывшего одноклассника, а завтра - он тащит тебя под пули. Кто ж знал, что заядлый любитель пончиков превратится в похожего на скалу супершпиона.
  • Видео данные: MPEG-4 AVC, 25.4 Mбит/с, 1920x1080
    Аудио данные: Русский (AC3, 6 ch, 384 Кбит/с), английский (DTS-HD MA, 6 ch, 3712 Кбит/с)
    Перевод: Дублированный [iTunes]
    Субтитры: Английские
    Продолжительность: 01:47:37
  • Полтора шпиона (2016) BD-Remux 1080p | iTunes Полтора шпиона (2016) BD-Remux 1080p | iTunes Полтора шпиона (2016) BD-Remux 1080p | iTunes
  • Автор релиза: селезень

    General
    Unique ID : 181887909871735398640837012099402152223 (0x88D65653AECBF9F789AFF10A4751B91F)
    Complete name : G:VideoНовая папка (2)Central.Intelligence.2016.BDREMUX.1080p.ExKinoRay.mkv
    Format : Matroska
    Format version : Version 4 / Version 2
    File size : 22.2 GiB
    Duration : 1 h 47 min
    Overall bit rate mode : Variable
    Overall bit rate : 29.5 Mb/s
    Movie name : build by ***селезень***
    Encoded date : UTC 2016-09-14 23:41:14
    Writing application : mkvmerge v8.3.0 ('Over the Horizon') 64bit
    Writing library : libebml v1.3.1 + libmatroska v1.4.2

    Video
    ID : 1
    Format : AVC
    Format/Info : Advanced Video Codec
    Format profile : High@L4.1
    Format settings, CABAC : Yes
    Format settings, ReFrames : 2 frames
    Codec ID : V_MPEG4/ISO/AVC
    Duration : 1 h 47 min
    Bit rate mode : Variable
    Bit rate : 25.4 Mb/s
    Width : 1 920 pixels
    Height : 1 080 pixels
    Display aspect ratio : 16:9
    Frame rate mode : Constant
    Frame rate : 23.976 (24000/1001) FPS
    Color space : YUV
    Chroma subsampling : 4:2:0
    Bit depth : 8 bits
    Scan type : Progressive
    Bits/(Pixel*Frame) : 0.511
    Stream size : 19.1 GiB (86%)
    Title : build by ***селезень***
    Language : English
    Default : Yes
    Forced : No

    Audio #1
    ID : 2
    Format : AC-3
    Format/Info : Audio Coding 3
    Mode extension : CM (complete main)
    Format settings, Endianness : Big
    Codec ID : A_AC3
    Duration : 1 h 47 min
    Bit rate mode : Constant
    Bit rate : 384 kb/s
    Channel(s) : 6 channels
    Channel positions : Front: L C R, Side: L R, LFE
    Sampling rate : 48.0 kHz
    Frame rate : 31.250 FPS (1536 spf)
    Compression mode : Lossy
    Stream size : 295 MiB (1%)
    Title : Dub [iTunes]
    Language : Russian
    Default : Yes
    Forced : No

    Audio #2
    ID : 3
    Format : DTS
    Format/Info : Digital Theater Systems
    Format profile : MA / Core
    Mode : 16
    Format settings, Endianness : Big
    Codec ID : A_DTS
    Duration : 1 h 47 min
    Bit rate mode : Variable / Constant
    Bit rate : 3 712 kb/s / 1 509 kb/s
    Channel(s) : 6 channels
    Channel positions : Front: L C R, Side: L R, LFE
    Sampling rate : 48.0 kHz
    Frame rate : 93.750 FPS (512 spf)
    Bit depth : 24 bits
    Compression mode : Lossless / Lossy
    Stream size : 2.79 GiB (13%)
    Title : Original
    Language : English
    Default : No
    Forced : No

    Text
    ID : 4
    Format : UTF-8
    Codec ID : S_TEXT/UTF8
    Codec ID/Info : UTF-8 Plain Text
    Duration : 1 h 45 min
    Bit rate : 83 b/s
    Count of elements : 2273
    Stream size : 64.6 KiB (0%)
    Language : English
    Default : No
    Forced : No

    Menu
    00:00:00.000 : en:00:00:00.000
    00:09:32.238 : en:00:09:32.238
    00:21:47.848 : en:00:21:47.848
    00:32:26.861 : en:00:32:26.861
    00:47:37.104 : en:00:47:37.104
    00:57:28.528 : en:00:57:28.528
    01:03:15.750 : en:01:03:15.750
    01:17:23.222 : en:01:17:23.222
    01:26:11.541 : en:01:26:11.541
    01:36:29.992 : en:01:36:29.992
    01:48:21.411 : en:01:48:21.411
10.0 из 10
голосов: 1
/10
/10
grab777 15-09-2016, 05:17
Информация
Посетители, находящиеся в группе Гости, не могут оставлять комментарии к данной публикации.