Панель пользователя
Регистрация

Воспользуйтесь социальными сетями для входа на https://freerutor.com

vk odnoklassniki facebook mailru yandex google
Популярное
Счетчик
Голосуй за нас
VIP на сайте
Популярное
Товары интернет магазина
загрузка...

Дочь Бога (2016) BDRip 720p | iTunes

Дочь Бога (2016) BDRip 720p | iTunes
Участники торрент обмена
Сидов Пиров Скачали
63 1 5828
Характеристика
Размер Файлы
3.78 GB
Поделиться раздачей
Фильмы (720,1080,Blu-Ray)
Наименование: Дочь Бога
Оригинальное наименование: Exposed
Категория: Драма, триллер, криминал, детектив
Произведено: США, Company Films, Emmett/Furla Films, Fortitude International, Palm-Star Entertainment, Remark Films
Режиссер постановщик: Деклан Дэйл
В главных ролях: Киану Ривз, Ана де Армас, Мира Сорвино, Биг Дэдди Кэйн, Кристофер МакДональд, Лаура Гомез, Клара Вонг, Майкл Рисполи, Дения Браче, Венус Эриель, Дэнни Хоч, Жанетт Дилон, Сэнди Техада, Гилберт Круз, Дэнни Гузман, Эриель Р. Пачеко, Пабло Гонзалез, Энтони Руис, Гейб Варгас, Исмаэль Круз
Краткое описание: В метро происходит жуткое преступление: убит детектив по имени Джошуа. За поиски убийцы берется его напарник, Скотт Галбан. Возле трупа лежал фотоаппарат, снимки на котором Скотт смотрит постоянно, пытаясь найти зацепку. Он находит свидетелей, но убийца быстрее: свидетели умирают один за другим до беседы со Скоттом. Осталась лишь Изабель, которая видела убийство, а теперь боится смерти.
  • Видео данные: MPEG-4 AVC, 4181 kb/s, 1280x534
    Аудио данные: Russian: AC3, 384 kb/s (6 ch) / English: AC3, 640 kb/s (6 ch)
    Перевод: Профессиональный многоголосый [iTunes]
    Субтитры: Russian. English, Spanish
    Продолжительность: 01:41:53
  • Дочь Бога (2016) BDRip 720p | iTunes Дочь Бога (2016) BDRip 720p | iTunes Дочь Бога (2016) BDRip 720p | iTunes
  • Общее
    Уникальный идентификатор : 202172073672642114125175667949661355912 (0x9818ECD0C3D3F185AFD3C1DAAB107F88)
    Полное имя : D:\загрузки\Exposed.2O16.P.BDRip.72Op.mkv
    Формат : Matroska
    Версия формата : Version 2
    Размер файла : 3,78 Гбайт
    Продолжительность : 1 ч. 41 м.
    Общий поток : 5310 Кбит/сек
    Дата кодирования : UTC 2016-09-29 07:11:52
    Программа кодирования : mkvmerge v7.8.0 ('River Man') 32bit built on Apr 3 2015 12:11:22
    Библиотека кодирования : libebml v1.3.1 + libmatroska v1.4.2

    Видео
    Идентификатор : 1
    Формат : AVC
    Формат/Информация : Advanced Video Codec
    Профиль формата : High@L4.1
    Параметр CABAC формата : Да
    Параметр ReFrames формата : 12 кадров
    Идентификатор кодека : V_MPEG4/ISO/AVC
    Продолжительность : 1 ч. 41 м.
    Битрейт : 4181 Кбит/сек
    Ширина : 1280 пикселей
    Высота : 534 пикселя
    Соотношение сторон : 2,40:1
    Режим частоты кадров : Постоянный
    Частота кадров : 24,000 кадра/сек
    Цветовое пространство : YUV
    Субдискретизация насыщенности : 4:2:0
    Битовая глубина : 8 бит
    Тип развёртки : Прогрессивная
    Бит/(Пиксели*Кадры) : 0.255
    Размер потока : 2,98 Гбайт (79%)
    Заголовок : 4.2Mbps CRF15.5
    Библиотека кодирования : x264 core 148 r2665 a01e339
    Настройки программы : cabac=1 / ref=12 / deblock=1:-3:-3 / analyse=0x3:0x133 / me=umh / subme=11 / psy=1 / psy_rd=1.00:0.00 / mixed_ref=1 / me_range=32 / chroma_me=1 / trellis=2 / 8x8dct=1 / cqm=0 / deadzone=21,11 / fast_pskip=0 / chroma_qp_offset=-2 / threads=6 / lookahead_threads=1 / sliced_threads=0 / nr=0 / decimate=0 / interlaced=0 / bluray_compat=0 / constrained_intra=0 / bframes=11 / b_pyramid=2 / b_adapt=2 / b_bias=0 / direct=3 / weightb=1 / open_gop=0 / weightp=2 / keyint=250 / keyint_min=24 / scenecut=40 / intra_refresh=0 / rc_lookahead=60 / rc=crf / mbtree=0 / crf=15.5 / qcomp=0.63 / qpmin=0 / qpmax=69 / qpstep=4 / vbv_maxrate=38000 / vbv_bufsize=30000 / crf_max=0.0 / nal_hrd=none / filler=0 / ip_ratio=1.40 / pb_ratio=1.23 / aq=3:0.60
    Язык : English
    Default : Да
    Forced : Нет

    Аудио #1
    Идентификатор : 2
    Формат : AC-3
    Формат/Информация : Audio Coding 3
    Расширение режима : CM (complete main)
    Параметр Endianness формата : Big
    Идентификатор кодека : A_AC3
    Продолжительность : 1 ч. 41 м.
    Вид битрейта : Постоянный
    Битрейт : 384 Кбит/сек
    Каналы : 6 каналов
    Расположение каналов : Front: L C R, Side: L R, LFE
    Частота : 48,0 КГц
    Битовая глубина : 16 бит
    Метод сжатия : С потерями
    Размер потока : 280 Мбайт (7%)
    Заголовок : iTunes
    Язык : Russian
    Default : Да
    Forced : Нет

    Аудио #2
    Идентификатор : 3
    Формат : AC-3
    Формат/Информация : Audio Coding 3
    Расширение режима : CM (complete main)
    Параметр Endianness формата : Big
    Идентификатор кодека : A_AC3
    Продолжительность : 1 ч. 41 м.
    Вид битрейта : Постоянный
    Битрейт : 640 Кбит/сек
    Каналы : 6 каналов
    Расположение каналов : Front: L C R, Side: L R, LFE
    Частота : 48,0 КГц
    Битовая глубина : 16 бит
    Метод сжатия : С потерями
    Размер потока : 466 Мбайт (12%)
    Заголовок : Main Audio DD5.1
    Язык : English
    Default : Нет
    Forced : Нет

    Текст #1
    Идентификатор : 4
    Формат : UTF-8
    Идентификатор кодека : S_TEXT/UTF8
    Идентификатор кодека/Информация : UTF-8 Plain Text
    Заголовок : full
    Язык : Russian
    Default : Нет
    Forced : Нет

    Текст #2
    Идентификатор : 5
    Формат : UTF-8
    Идентификатор кодека : S_TEXT/UTF8
    Идентификатор кодека/Информация : UTF-8 Plain Text
    Заголовок : forced
    Язык : English
    Default : Нет
    Forced : Нет

    Текст #3
    Идентификатор : 6
    Формат : UTF-8
    Идентификатор кодека : S_TEXT/UTF8
    Идентификатор кодека/Информация : UTF-8 Plain Text
    Заголовок : full
    Язык : English
    Default : Нет
    Forced : Нет

    Текст #4
    Идентификатор : 7
    Формат : UTF-8
    Идентификатор кодека : S_TEXT/UTF8
    Идентификатор кодека/Информация : UTF-8 Plain Text
    Язык : Spanish
    Default : Нет
    Forced : Нет

    Меню
    00:00:00.000 : en:Chapter 01
    00:06:04.458 : en:Chapter 02
    00:11:40.625 : en:Chapter 03
    00:17:12.375 : en:Chapter 04
    00:23:18.625 : en:Chapter 05
    00:30:05.458 : en:Chapter 06
    00:35:59.792 : en:Chapter 07
    00:45:04.458 : en:Chapter 08
    00:49:15.417 : en:Chapter 09
    00:56:11.250 : en:Chapter 10
    01:01:18.042 : en:Chapter 11
    01:06:22.417 : en:Chapter 12
    01:10:49.458 : en:Chapter 13
    01:16:26.500 : en:Chapter 14
    01:21:57.375 : en:Chapter 15
    01:29:13.000 : en:Chapter 16
8.4 из 10
голосов: 5
/10
/10
karta 29-09-2016, 10:20
Информация
Посетители, находящиеся в группе Гости, не могут оставлять комментарии к данной публикации.