Панель пользователя
Регистрация

Воспользуйтесь социальными сетями для входа на https://freerutor.com

vk odnoklassniki facebook mailru yandex google
Популярное
Счетчик
Голосуй за нас
VIP на сайте
Популярное
Товары интернет магазина
загрузка...

Отмель (2016) BDRip 720р | iTunes | R.G.Resident

Отмель (2016) BDRip 720р | iTunes | R.G.Resident
Участники торрент обмена
Сидов Пиров Скачали
14 0 1416
Характеристика
Размер Файлы
5.91 GB
Релиз группа
Поделиться раздачей
Фильмы (720,1080,Blu-Ray)
Наименование: Отмель
Оригинальное наименование: The Shallows
Категория: ужасы, триллер, драма
Произведено: США
Режиссер постановщик: Хауме Кольет-Серра
В главных ролях: Блейк Лайвли, Оскар Хаэнада, Бретт Каллен, Седона Ледже, Пабло Кальва, Диего Эспехель, Джанелл Бэйли, Ава Дин, Челси Муди, Салли Сигалл, Angelo Jose Lozano Corzo
Краткое описание: Бескрайний океан, безлюдный пляж и идеальная погода для серфингистов в поисках хорошей волны. Казалось бы, ничто не предвещает беды для очаровательной любительницы серфинга в одиночку. Разве что свидание тет-а-тет с гигантской акулой, которая загонит спортсменку на песчаную отмель и не отступит до тех пор, пока не получит своё.
  • Видео данные: MPEG-4 AVC, 8783 Кбит/с, 1280x536
    Аудио данные: Русский (AC3, 6 ch, 384 Кбит/с), английский (АС3, 6 ch, 640 Кбит/с)
    Перевод: Дубляж - [iTunes]
    Продолжительность: 01:26:16
    Субтитры: русские (Forced [iTunes]), русские (Full [iTunes]), английские (Forced [iTunes]), английские (Full [iTunes])
  • Отмель (2016) BDRip 720р | iTunes | R.G.Resident Отмель (2016) BDRip 720р | iTunes | R.G.Resident Отмель (2016) BDRip 720р | iTunes | R.G.Resident
  • x264 [info]: frame I:747 Avg QP:12.69 size:137696
    x264 [info]: frame P:36385 Avg QP:15.90 size: 63483
    x264 [info]: frame B:86972 Avg QP:17.70 size: 37588

    General
    Unique ID : 189309285004077082924716946468743274691 (0x8E6BA45EF6002D7B887A08ED9199E0C3)
    Complete name : D:\download\The.Shallows.2016.BDRip 720р by schultz R.G.Resident.mkv
    Format : Matroska
    Format version : Version 4 / Version 2
    File size : 5.91 GiB
    Duration : 1 h 26 min
    Overall bit rate : 9 808 kb/s
    Encoded date : UTC 2016-09-13 08:38:28
    Writing application : mkvmerge v8.9.0 ('Father Daughter') 64bit
    Writing library : libebml v1.3.3 + libmatroska v1.4.4

    Video
    ID : 1
    Format : AVC
    Format/Info : Advanced Video Codec
    Format profile : High@L4.1
    Format settings, CABAC : Yes
    Format settings, ReFrames : 12 frames
    Codec ID : V_MPEG4/ISO/AVC
    Duration : 1 h 26 min
    Bit rate : 8 783 kb/s
    Width : 1 280 pixels
    Height : 536 pixels
    Display aspect ratio : 2.40:1
    Frame rate mode : Constant
    Frame rate : 23.976 (23976/1000) FPS
    Color space : YUV
    Chroma subsampling : 4:2:0
    Bit depth : 8 bits
    Scan type : Progressive
    Bits/(Pixel*Frame) : 0.534
    Stream size : 5.29 GiB (90%)
    Writing library : x264 core 146 r2538 121396c
    Encoding settings : cabac=1 / ref=12 / deblock=1:-3:-3 / analyse=0x3:0x113 / me=umh / subme=11 / psy=1 / psy_rd=1.00:0.00 / mixed_ref=1 / me_range=48 / chroma_me=1 / trellis=2 / 8x8dct=1 / cqm=0 / deadzone=21,11 / fast_pskip=0 / chroma_qp_offset=-2 / threads=12 / lookahead_threads=3 / sliced_threads=0 / nr=0 / decimate=0 / interlaced=0 / bluray_compat=0 / constrained_intra=0 / bframes=11 / b_pyramid=2 / b_adapt=2 / b_bias=0 / direct=3 / weightb=1 / open_gop=0 / weightp=2 / keyint=240 / keyint_min=23 / scenecut=40 / intra_refresh=0 / rc_lookahead=40 / rc=2pass / mbtree=1 / bitrate=8783 / ratetol=1.0 / qcomp=0.60 / qpmin=0 / qpmax=69 / qpstep=4 / cplxblur=20.0 / qblur=0.5 / vbv_maxrate=50000 / vbv_bufsize=62500 / nal_hrd=none / filler=0 / ip_ratio=1.40 / aq=1:1.00
    Language : English
    Default : Yes
    Forced : No

    Audio #1
    ID : 2
    Format : AC-3
    Format/Info : Audio Coding 3
    Mode extension : CM (complete main)
    Format settings, Endianness : Big
    Codec ID : A_AC3
    Duration : 1 h 26 min
    Bit rate mode : Constant
    Bit rate : 384 kb/s
    Channel(s) : 6 channels
    Channel positions : Front: L C R, Side: L R, LFE
    Sampling rate : 48.0 kHz
    Frame rate : 31.250 FPS (1536 spf)
    Compression mode : Lossy
    Delay relative to video : 1 s 0 ms
    Stream size : 237 MiB (4%)
    Language : Russian
    Default : Yes
    Forced : No

    Audio #2
    ID : 3
    Format : AC-3
    Format/Info : Audio Coding 3
    Mode extension : CM (complete main)
    Format settings, Endianness : Big
    Codec ID : A_AC3
    Duration : 1 h 26 min
    Bit rate mode : Constant
    Bit rate : 640 kb/s
    Channel(s) : 6 channels
    Channel positions : Front: L C R, Side: L R, LFE
    Sampling rate : 48.0 kHz
    Frame rate : 31.250 FPS (1536 spf)
    Compression mode : Lossy
    Stream size : 395 MiB (7%)
    Language : English
    Default : No
    Forced : No

    Text #1
    ID : 4
    Format : UTF-8
    Codec ID : S_TEXT/UTF8
    Codec ID/Info : UTF-8 Plain Text
    Duration : 1 h 19 min
    Bit rate : 1 b/s
    Count of elements : 36
    Stream size : 1.00 KiB (0%)
    Title : Forced [iTunes]
    Language : Russian
    Default : Yes
    Forced : No

    Text #2
    ID : 5
    Format : UTF-8
    Codec ID : S_TEXT/UTF8
    Codec ID/Info : UTF-8 Plain Text
    Duration : 1 h 19 min
    Bit rate : 27 b/s
    Count of elements : 460
    Stream size : 15.9 KiB (0%)
    Title : Full [iTunes]
    Language : Russian
    Default : No
    Forced : No

    Text #3
    ID : 6
    Format : UTF-8
    Codec ID : S_TEXT/UTF8
    Codec ID/Info : UTF-8 Plain Text
    Duration : 4 min
    Bit rate : 6 b/s
    Count of elements : 13
    Stream size : 200 Bytes (0%)
    Title : Forced [iTunes]
    Language : English
    Default : No
    Forced : No

    Text #4
    ID : 7
    Format : UTF-8
    Codec ID : S_TEXT/UTF8
    Codec ID/Info : UTF-8 Plain Text
    Duration : 1 h 17 min
    Bit rate : 18 b/s
    Count of elements : 446
    Stream size : 10.3 KiB (0%)
    Title : Full [iTunes]
    Language : English
    Default : No
    Forced : No

    Menu
    00:00:00.000 : en:1
    00:08:08.697 : en:2
    00:15:09.409 : en:3
    00:20:30.938 : en:4
    00:25:44.876 : en:5
    00:30:06.053 : en:6
    00:36:03.118 : en:7
    00:40:38.685 : en:8
    00:45:40.611 : en:9
    00:49:31.216 : en:10
    00:55:56.976 : en:11
    01:01:20.507 : en:12
    01:06:21.558 : en:13
    01:09:56.439 : en:14
    01:13:37.701 : en:15
    01:19:00.482 : en:16
7.3 из 10
голосов: 10
/10
/10
schultz 13-09-2016, 13:05
Информация
Посетители, находящиеся в группе Гости, не могут оставлять комментарии к данной публикации.