Панель пользователя
Регистрация

Воспользуйтесь социальными сетями для входа на https://freerutor.com

vk odnoklassniki facebook mailru yandex google
Популярное
Счетчик
Голосуй за нас
VIP на сайте
Популярное
Товары интернет магазина
загрузка...

Наемник Куорри (1 сезон 1-8 серии из 8) (2016) HDTVRip-AVC | AlexFilm

Наемник Куорри (1 сезон 1-8 серии из 8) (2016) HDTVRip-AVC | AlexFilm
Участники торрент обмена
Сидов Пиров Скачали
0 0 16
Характеристика
Размер Файлы
10.16 GB
Релиз группа
Поделиться раздачей
Зарубежные сериалы
Наименование: Наемник Куорри
Оригинальное наименование: Quarry
Произведено: США
Категория: драма
Режиссер постановщик: Грег Яйтанс, Джон Хиллкоут
В главных ролях: Логан Маршалл-Грин, Джоди Бальфур, Питер Муллан, Никки Амука-Бёрд, Дэймон Херриман, Эдоардо Баллерини, Хлоя Элиз, Джош Рэндэлл, Мустафа Жакир, Джошуа Дж. Уильямс
Краткое описание: Дело происходит в 1973 году. Снайпер Куорри возвращается из третьей военной командировки во Вьетнам и обнаруживает, что люди не видят в нём героя, скорее демонизируя образ американского солдата, а старые друзья так и вовсе от него отвернулись. От разочарования он подаётся в разветвлённую сеть наёмных убийц и коррупционеров, действующую на всей протяжённости Миссисипи.
  • Видео данные: MPEG-4 AVC, ~ 2435 Кбит/с, 1024x576
    Аудио данные: Русский, английский (AC3, 6 ch, 384 Кбит/с)
    Перевод: Профессиональный многоголосый [AlexFilm]
    Субтитры: Русские, английские
    Продолжительность: 1 x ~ 01:15:00

    Наемник Куорри (1 сезон 1-8 серии из 8) (2016) HDTVRip-AVC | AlexFilm
  • Наемник Куорри (1 сезон 1-8 серии из 8) (2016) HDTVRip-AVC | AlexFilm Наемник Куорри (1 сезон 1-8 серии из 8) (2016) HDTVRip-AVC | AlexFilm Наемник Куорри (1 сезон 1-8 серии из 8) (2016) HDTVRip-AVC | AlexFilm
  • Общее
    Уникальный идентификатор : 253886726281206148318208778617408170764 (0xBF00CE0B7C12F8C6936ECC6A3807AB0C)
    Полное имя : D:\загрузки\Quarry (Season 01) HDAVC AlexFilm\Quarry.[S01E01].HDAVC.AlexFilm.mkv
    Формат : Matroska
    Версия формата : Version 2
    Размер файла : 1,65 Гбайт
    Продолжительность : 1 ч. 15 м.
    Общий поток : 3105 Кбит/сек
    Дата кодирования : UTC 2016-09-12 17:28:52
    Программа кодирования : mkvmerge v7.8.0 ('River Man') 32bit built on Apr 3 2015 12:11:22
    Библиотека кодирования : libebml v1.3.1 + libmatroska v1.4.2

    Видео
    Идентификатор : 1
    Формат : AVC
    Формат/Информация : Advanced Video Codec
    Профиль формата : High@L4.1
    Параметр CABAC формата : Да
    Параметр ReFrames формата : 9 кадров
    Идентификатор кодека : V_MPEG4/ISO/AVC
    Продолжительность : 1 ч. 15 м.
    Битрейт : 2275 Кбит/сек
    Номинальный битрейт : 2435 Кбит/сек
    Ширина : 1024 пикселя
    Высота : 576 пикселей
    Соотношение сторон : 16:9
    Режим частоты кадров : Постоянный
    Частота кадров : 23,976 кадра/сек
    Цветовое пространство : YUV
    Субдискретизация насыщенности : 4:2:0
    Битовая глубина : 8 бит
    Тип развёртки : Прогрессивная
    Бит/(Пиксели*Кадры) : 0.161
    Размер потока : 1,21 Гбайт (73%)
    Библиотека кодирования : x264 core 146 r2538 121396c
    Настройки программы : cabac=1 / ref=9 / deblock=1:-3:-3 / analyse=0x3:0x113 / me=umh / subme=10 / psy=1 / psy_rd=1.00:0.00 / mixed_ref=1 / me_range=32 / chroma_me=1 / trellis=2 / 8x8dct=1 / cqm=0 / deadzone=21,11 / fast_pskip=0 / chroma_qp_offset=-2 / threads=6 / lookahead_threads=1 / sliced_threads=0 / nr=0 / decimate=0 / interlaced=0 / bluray_compat=0 / constrained_intra=0 / bframes=10 / b_pyramid=2 / b_adapt=1 / b_bias=0 / direct=3 / weightb=1 / open_gop=0 / weightp=2 / keyint=250 / keyint_min=25 / scenecut=40 / intra_refresh=0 / rc_lookahead=40 / rc=2pass / mbtree=0 / bitrate=2435 / ratetol=1.0 / qcomp=0.60 / qpmin=0 / qpmax=69 / qpstep=4 / cplxblur=20.0 / qblur=0.5 / vbv_maxrate=50000 / vbv_bufsize=62500 / nal_hrd=none / filler=0 / ip_ratio=1.40 / pb_ratio=1.30 / aq=1:1.00
    Язык : English
    Default : Да
    Forced : Нет

    Аудио #1
    Идентификатор : 2
    Формат : AC-3
    Формат/Информация : Audio Coding 3
    Расширение режима : CM (complete main)
    Параметр Endianness формата : Big
    Идентификатор кодека : A_AC3
    Продолжительность : 1 ч. 15 м.
    Вид битрейта : Постоянный
    Битрейт : 384 Кбит/сек
    Каналы : 6 каналов
    Расположение каналов : Front: L C R, Side: L R, LFE
    Частота : 48,0 КГц
    Битовая глубина : 16 бит
    Метод сжатия : С потерями
    Размер потока : 208 Мбайт (12%)
    Язык : Russian
    Default : Да
    Forced : Нет

    Аудио #2
    Идентификатор : 3
    Формат : AC-3
    Формат/Информация : Audio Coding 3
    Расширение режима : CM (complete main)
    Параметр Endianness формата : Big
    Идентификатор кодека : A_AC3
    Продолжительность : 1 ч. 15 м.
    Вид битрейта : Постоянный
    Битрейт : 384 Кбит/сек
    Каналы : 6 каналов
    Расположение каналов : Front: L C R, Side: L R, LFE
    Частота : 48,0 КГц
    Битовая глубина : 16 бит
    Метод сжатия : С потерями
    Размер потока : 208 Мбайт (12%)
    Язык : English
    Default : Нет
    Forced : Нет

    Текст #1
    Идентификатор : 4
    Формат : UTF-8
    Идентификатор кодека : S_TEXT/UTF8
    Идентификатор кодека/Информация : UTF-8 Plain Text
    Язык : Russian
    Default : Нет
    Forced : Нет

    Текст #2
    Идентификатор : 5
    Формат : UTF-8
    Идентификатор кодека : S_TEXT/UTF8
    Идентификатор кодека/Информация : UTF-8 Plain Text
    Язык : English
    Default : Нет
    Forced : Нет
6.0 из 10
голосов: 9
/10
/10
Раздачу отредактировал: karta - 30-10-2016, 20:21
По причине: (+ 7, 8 серия! Полный сезон.)
karta 30-10-2016, 20:21

karta | 17-10-2016, 00:41 | Статус: Оффлайн

Информация
Посетители, находящиеся в группе Гости, не могут оставлять комментарии к данной публикации.