Панель пользователя
Регистрация

Воспользуйтесь социальными сетями для входа на https://freerutor.com

vk odnoklassniki facebook mailru yandex google
Популярное
Счетчик
Голосуй за нас
VIP на сайте
Популярное
Товары интернет магазина
загрузка...

Варкрафт (2016) BDRip 720р | iTunes | R.G.Resident

Варкрафт (2016) BDRip 720р | iTunes | R.G.Resident
Участники торрент обмена
Сидов Пиров Скачали
8 0 1434
Характеристика
Размер Файлы
7.07 GB
Релиз группа
Поделиться раздачей
Фильмы (720,1080,Blu-Ray)
Наименование: Варкрафт
Оригинальное наименование: Warcraft
Категория: фэнтези, боевик, приключения
Произведено: Китай, Канада, Япония, США
Режиссер постановщик: Дункан Джонс
В главных ролях: Трэвис Фиммел, Пола Пэттон, Бен Фостер, Доминик Купер, Тоби Кеббелл, Бен Шнетцер, Роберт Казински, Клэнси Браун, Дэниэл Ву, Рут Негга
Краткое описание: Веками магия и неприступные стены защищали людей от любых напастей. Но древнее зло, побежденное и забытое тысячелетия назад, пробудилось.
В самом сердце королевства открылся темный портал, и раса невиданных существ наводнила земли Азерота. Так начались события, призванные навсегда изменить судьбу этого мира.
  • Видео данные: MPEG-4 AVC, 7197 Кбит/с, 1280x526
    Аудио данные: Русский (AC3, 6 ch, 384 Кбит/с), английский (АС3, 6 ch, 640 Кбит/с)
    Перевод: Дубляж - [iTunes]
    Продолжительность: 02:03:07
    Субтитры: русские (Full), английские (Full), английские (SDH)
  • Варкрафт (2016) BDRip 720р | iTunes | R.G.Resident Варкрафт (2016) BDRip 720р | iTunes | R.G.Resident Варкрафт (2016) BDRip 720р | iTunes | R.G.Resident
  • x264 [info]: frame I:1467 Avg QP:11.48 size:202657
    x264 [info]: frame P:49381 Avg QP:15.22 size: 73326
    x264 [info]: frame B:126272 Avg QP:17.85 size: 21597

    General
    Unique ID : 183526240782492252944683373225265109704 (0x8A11DE46F7C064119EF4FAEA67309AC8)
    Complete name : D:\download\Warcraft.2016.BDRip 720р by schultz R.G.Resident.mkv
    Format : Matroska
    Format version : Version 4 / Version 2
    File size : 7.07 GiB
    Duration : 2 h 3 min
    Overall bit rate : 8 223 kb/s
    Encoded date : UTC 2016-09-12 07:47:01
    Writing application : mkvmerge v8.9.0 ('Father Daughter') 64bit
    Writing library : libebml v1.3.3 + libmatroska v1.4.4

    Video
    ID : 1
    Format : AVC
    Format/Info : Advanced Video Codec
    Format profile : High@L4.1
    Format settings, CABAC : Yes
    Format settings, ReFrames : 12 frames
    Codec ID : V_MPEG4/ISO/AVC
    Duration : 2 h 3 min
    Bit rate : 7 197 kb/s
    Width : 1 280 pixels
    Height : 526 pixels
    Display aspect ratio : 2.40:1
    Frame rate mode : Constant
    Frame rate : 23.976 (23976/1000) FPS
    Color space : YUV
    Chroma subsampling : 4:2:0
    Bit depth : 8 bits
    Scan type : Progressive
    Bits/(Pixel*Frame) : 0.446
    Stream size : 6.19 GiB (88%)
    Writing library : x264 core 146 r2538 121396c
    Encoding settings : cabac=1 / ref=12 / deblock=1:-3:-3 / analyse=0x3:0x113 / me=umh / subme=11 / psy=1 / psy_rd=1.00:0.00 / mixed_ref=1 / me_range=48 / chroma_me=1 / trellis=2 / 8x8dct=1 / cqm=0 / deadzone=21,11 / fast_pskip=0 / chroma_qp_offset=-2 / threads=12 / lookahead_threads=3 / sliced_threads=0 / nr=0 / decimate=0 / interlaced=0 / bluray_compat=0 / constrained_intra=0 / bframes=11 / b_pyramid=2 / b_adapt=2 / b_bias=0 / direct=3 / weightb=1 / open_gop=0 / weightp=2 / keyint=240 / keyint_min=23 / scenecut=40 / intra_refresh=0 / rc_lookahead=40 / rc=2pass / mbtree=1 / bitrate=7197 / ratetol=1.0 / qcomp=0.60 / qpmin=0 / qpmax=69 / qpstep=4 / cplxblur=20.0 / qblur=0.5 / vbv_maxrate=50000 / vbv_bufsize=62500 / nal_hrd=none / filler=0 / ip_ratio=1.40 / aq=1:1.00
    Language : English
    Default : Yes
    Forced : No

    Audio #1
    ID : 2
    Format : AC-3
    Format/Info : Audio Coding 3
    Mode extension : CM (complete main)
    Format settings, Endianness : Big
    Codec ID : A_AC3
    Duration : 2 h 3 min
    Bit rate mode : Constant
    Bit rate : 384 kb/s
    Channel(s) : 6 channels
    Channel positions : Front: L C R, Side: L R, LFE
    Sampling rate : 48.0 kHz
    Frame rate : 31.250 FPS (1536 spf)
    Compression mode : Lossy
    Stream size : 338 MiB (5%)
    Language : Russian
    Default : Yes
    Forced : No

    Audio #2
    ID : 3
    Format : AC-3
    Format/Info : Audio Coding 3
    Mode extension : CM (complete main)
    Format settings, Endianness : Big
    Codec ID : A_AC3
    Duration : 2 h 3 min
    Bit rate mode : Constant
    Bit rate : 640 kb/s
    Channel(s) : 6 channels
    Channel positions : Front: L C R, Side: L R, LFE
    Sampling rate : 48.0 kHz
    Frame rate : 31.250 FPS (1536 spf)
    Compression mode : Lossy
    Stream size : 564 MiB (8%)
    Language : English
    Default : No
    Forced : No

    Text #1
    ID : 4
    Format : UTF-8
    Codec ID : S_TEXT/UTF8
    Codec ID/Info : UTF-8 Plain Text
    Duration : 1 h 55 min
    Bit rate : 57 b/s
    Count of elements : 1054
    Stream size : 48.4 KiB (0%)
    Title : Full
    Language : Russian
    Default : No
    Forced : No

    Text #2
    ID : 5
    Format : UTF-8
    Codec ID : S_TEXT/UTF8
    Codec ID/Info : UTF-8 Plain Text
    Duration : 1 h 52 min
    Bit rate : 36 b/s
    Count of elements : 1235
    Stream size : 30.2 KiB (0%)
    Title : Full
    Language : English
    Default : No
    Forced : No

    Text #3
    ID : 6
    Format : UTF-8
    Codec ID : S_TEXT/UTF8
    Codec ID/Info : UTF-8 Plain Text
    Duration : 1 h 53 min
    Bit rate : 42 b/s
    Count of elements : 1394
    Stream size : 35.0 KiB (0%)
    Title : SDH
    Language : English
    Default : No
    Forced : No

    Menu
    00:00:00.000 : en:00:00:00.000
    00:09:26.483 : en:00:09:26.483
    00:15:49.407 : en:00:15:49.407
    00:22:36.146 : en:00:22:36.146
    00:29:16.171 : en:00:29:16.171
    00:38:43.321 : en:00:38:43.321
    00:46:44.093 : en:00:46:44.093
    00:53:02.679 : en:00:53:02.679
    00:56:17.332 : en:00:56:17.332
    01:02:43.927 : en:01:02:43.927
    01:07:48.314 : en:01:07:48.314
    01:12:24.549 : en:01:12:24.549
    01:17:13.045 : en:01:17:13.045
    01:22:45.669 : en:01:22:45.669
    01:26:32.145 : en:01:26:32.145
    01:32:29.669 : en:01:32:29.669
    01:40:25.102 : en:01:40:25.102
    01:47:38.118 : en:01:47:38.118
    01:51:12.833 : en:01:51:12.833
    01:53:58.832 : en:01:53:58.832
8.2 из 10
голосов: 5
/10
/10
schultz 12-09-2016, 11:36
Информация
Посетители, находящиеся в группе Гости, не могут оставлять комментарии к данной публикации.