Панель пользователя
Регистрация

Воспользуйтесь социальными сетями для входа на https://freerutor.com

vk odnoklassniki facebook mailru yandex google
Популярное
Счетчик
Голосуй за нас
VIP на сайте
Популярное
Товары интернет магазина
загрузка...

Иллюзия обмана 2 (2016) BDRip 1080p | US Transfer | Лицензия

Иллюзия обмана 2 (2016) BDRip 1080p | US Transfer | Лицензия
Участники торрент обмена
Сидов Пиров Скачали
14 1 1886
Характеристика
Размер Файлы
11.65 GB
Релиз группа
Поделиться раздачей
Фильмы (720,1080,Blu-Ray)
Наименование: Иллюзия обмана 2
Оригинальное наименование: Now You See Me 2
Категория: Боевик, триллер, комедия, криминал, детектив, приключения
Произведено: США, Китай, Великобритания, Канада / Lionsgate, Summit Entertainment
Режиссер постановщик: Джон М. Чу
В главных ролях: Джесси Айзенберг, Марк Руффало, Вуди Харрельсон, Дэйв Франко, Дэниэл Рэдклифф, Лиззи Каплан, Джей Чоу, Санаа Лэтэн, Майкл Кейн, Морган Фриман
Краткое описание: «Четыре всадника», команда лучших иллюзионистов мира, снова в сборе! Их «магия» стала еще совершеннее, а враги - опаснее. На сей раз им предстоит спасти свою репутацию и вывести на чистую воду жестокого техномагната...
  • Видео данные: MPEG-4 AVC, 11.6 Мбит/с, 1920x800
    Аудио данные: Русский, английский (AC3, 6 ch, 640 Кбит/с)
    Перевод: Дублированный [Лицензия]
    Субтитры: Английские
    Продолжительность: 02:09:13
  • Иллюзия обмана 2 (2016) BDRip 1080p | US Transfer | Лицензия Иллюзия обмана 2 (2016) BDRip 1080p | US Transfer | Лицензия Иллюзия обмана 2 (2016) BDRip 1080p | US Transfer | Лицензия
  • Формат : Matroska
    Версия формата : Version 2
    Размер файла : 11,6 Гбайт
    Продолжительность : 2 ч. 9 м.
    Общий поток : 12,9 Мбит/сек
    Название фильма : ~V ad~
    Дата кодирования : UTC 2016-09-04 06:54:01
    Программа кодирования : mkvmerge v6.5.0 ('Isn't she lovely') built on Oct 20 2013 12:50:05
    Библиотека кодирования : libebml v1.3.0 + libmatroska v1.4.1
    Обложка : Yes
    Attachments : cover.jpg

    Видео
    Идентификатор : 1
    Формат : AVC
    Формат/Информация : Advanced Video Codec
    Профиль формата : High@L4.1
    Параметр CABAC формата : Да
    Параметр ReFrames формата : 5 кадров
    Идентификатор кодека : V_MPEG4/ISO/AVC
    Продолжительность : 2 ч. 9 м.
    Битрейт : 11,6 Мбит/сек
    Ширина : 1920 пикселей
    Высота : 800 пикселей
    Соотношение сторон : 2,40:1
    Режим частоты кадров : Постоянный
    Частота кадров : 23,976 (24000/1001) кадра/сек
    Цветовое пространство : YUV
    Субдискретизация насыщенности : 4:2:0
    Битовая глубина : 8 бит
    Тип развёртки : Прогрессивная
    Бит/(Пиксели*Кадры) : 0.316
    Размер потока : 10,3 Гбайт (88%)
    Заголовок : ~V~
    Библиотека кодирования : x264 core 148 r2705 3f5ed56
    Настройки программы : cabac=1 / ref=5 / deblock=1:-3:-3 / analyse=0x3:0x133 / me=umh / subme=11 / psy=1 / psy_rd=1.00:0.10 / mixed_ref=1 / me_range=32 / chroma_me=1 / trellis=2 / 8x8dct=1 / cqm=0 / deadzone=21,11 / fast_pskip=0 / chroma_qp_offset=-3 / threads=12 / lookahead_threads=1 / sliced_threads=0 / nr=0 / decimate=0 / interlaced=0 / bluray_compat=0 / constrained_intra=0 / bframes=9 / b_pyramid=2 / b_adapt=2 / b_bias=0 / direct=2 / weightb=1 / open_gop=0 / weightp=2 / keyint=240 / keyint_min=23 / scenecut=40 / intra_refresh=0 / rc=2pass / mbtree=0 / bitrate=11627 / ratetol=1.0 / qcomp=0.60 / qpmin=0 / qpmax=69 / qpstep=4 / cplxblur=20.0 / qblur=0.5 / ip_ratio=1.34 / pb_ratio=1.26 / aq=3:0.95
    Язык : English
    Default : Да
    Forced : Нет

    Аудио #1
    Идентификатор : 2
    Формат : AC-3
    Формат/Информация : Audio Coding 3
    Расширение режима : CM (complete main)
    Параметр Endianness формата : Big
    Идентификатор кодека : A_AC3
    Продолжительность : 2 ч. 9 м.
    Вид битрейта : Постоянный
    Битрейт : 640 Кбит/сек
    Каналы : 6 каналов
    Расположение каналов : Front: L C R, Side: L R, LFE
    Частота : 48,0 КГц
    Частота кадров : 31,250 кадров/сек (1536 spf)
    Метод сжатия : С потерями
    Размер потока : 592 Мбайт (5%)
    Заголовок : Dub
    Язык : Russian
    Default : Да
    Forced : Да

    Аудио #2
    Идентификатор : 3
    Формат : AC-3
    Формат/Информация : Audio Coding 3
    Расширение режима : CM (complete main)
    Параметр Endianness формата : Big
    Идентификатор кодека : A_AC3
    Продолжительность : 2 ч. 9 м.
    Вид битрейта : Постоянный
    Битрейт : 640 Кбит/сек
    Каналы : 6 каналов
    Расположение каналов : Front: L C R, Side: L R, LFE
    Частота : 48,0 КГц
    Частота кадров : 31,250 кадров/сек (1536 spf)
    Метод сжатия : С потерями
    Размер потока : 592 Мбайт (5%)
    Язык : English
    Default : Нет
    Forced : Нет

    Текст #1
    Идентификатор : 4
    Формат : UTF-8
    Идентификатор кодека : S_TEXT/UTF8
    Идентификатор кодека/Информация : UTF-8 Plain Text
    Заголовок : Full
    Язык : English
    Default : Нет
    Forced : Нет

    Текст #2
    Идентификатор : 5
    Формат : UTF-8
    Идентификатор кодека : S_TEXT/UTF8
    Идентификатор кодека/Информация : UTF-8 Plain Text
    Заголовок : SDH
    Язык : English
    Default : Нет
    Forced : Нет

    Меню
    00:00:00.000 : en:00:00:00.000
    00:07:05.133 : en:00:07:05.133
    00:16:03.838 : en:00:16:03.838
    00:25:29.570 : en:00:25:29.570
    00:33:16.828 : en:00:33:16.828
    00:39:57.645 : en:00:39:57.645
    00:48:07.718 : en:00:48:07.718
    00:53:34.711 : en:00:53:34.711
    01:03:53.246 : en:01:03:53.246
    01:14:00.561 : en:01:14:00.561
    01:20:23.569 : en:01:20:23.569
    01:26:37.400 : en:01:26:37.400
    01:32:37.051 : en:01:32:37.051
    01:38:46.837 : en:01:38:46.837
    01:48:13.529 : en:01:48:13.529
    01:54:04.921 : en:01:54:04.921
8.7 из 10
голосов: 3
/10
/10
grab777 12-09-2016, 08:00
Информация
Посетители, находящиеся в группе Гости, не могут оставлять комментарии к данной публикации.