Панель пользователя
Регистрация

Воспользуйтесь социальными сетями для входа на https://freerutor.com

vk odnoklassniki facebook mailru yandex google
Популярное
Счетчик
Голосуй за нас
VIP на сайте
Популярное
Товары интернет магазина
загрузка...

Черепашки-ниндзя 2 (2016) BDRip-AVC | Лицензия от R.G.Resident

Черепашки-ниндзя 2 (2016) BDRip-AVC | Лицензия от R.G.Resident
Участники торрент обмена
Сидов Пиров Скачали
28 0 1680
Характеристика
Размер Файлы
2.56 GB
Релиз группа
Поделиться раздачей
Фильмы (AVC)
Наименование: Черепашки-ниндзя 2
Оригинальное наименование: Teenage Mutant Ninja Turtles: Out of the Shadows
Категория: фантастика, боевик, комедия, приключения
Произведено: США, Гонконг, Китай, Канада
Режиссер постановщик: Дэйв Грин
В главных ролях: Меган Фокс (April O'Neil), Уилл Арнетт (Vernon Fenwick), Лора Линни (Chief Vincent), Стивен Амелл (Casey Jones), Ноэль Фишер (Michelangelo), Джереми Ховард (Donatello), Пит Пложек (Leonardo), Алан Ричсон (Raphael), Тайлер Перри (Baxter Stockman), Брайан Ти (Shredder), Стефен Фаррелли (Rocksteady), Гари Энтони Уильямс (Bebop)
Краткое описание: Долгое время черепашки-ниндзя скрывались от людей в лабиринтах городской канализации. На протяжении нескольких лет учитель Сплинтер обучал их боевым искусствам и прививал им чувство справедливости. В один прекрасный момент им пришлось подняться наверх, чтобы спасти Нью-Йорк от Шредера, предводителя Клана Футов, захватившего власть в Нью-Йорке. Вместе с отважным репортером Эйприл и ее оператором Верном, бесстрашные воины смогли одержать победу и очистить любимый город от преступности. Леонардо, Микеланджело, Рафаэль и Донателло нашли свое предназначение в этом мире и стали защитниками своего города. Они навели порядок в Нью-Йорке и с чистой совестью могли отправиться на покой, но однажды им вновь пришлось столкнуться с могущественным врагом, угрожающим их городу.
  • Видео данные: MPEG-4 AVC, 1024x426 (2.40:1), 2817 kbps
    Аудио данные: AC3, 6 ch, 448 kbps
    Перевод: Дублированный [Лицензия BD CEE]
    Продолжительность: 01:52:09
    Субтитры: Русские (forced,full)
    Навигация по главам есть
    Rip by Черепашки-ниндзя 2 (2016) BDRip-AVC | Лицензия от R.G.Resident
  • Черепашки-ниндзя 2 (2016) BDRip-AVC | Лицензия от R.G.Resident Черепашки-ниндзя 2 (2016) BDRip-AVC | Лицензия от R.G.Resident Черепашки-ниндзя 2 (2016) BDRip-AVC | Лицензия от R.G.Resident
  • General
    Unique ID : 242828078445385475622584411030874141770 (0xB6AEFC9C68789D29B33DFF772AEAB44A)
    Complete name : D:\TMNT_OUT_OF_THE_SHADOWS.2016.BDRip-AVC.Rip.by.White Smoke.R.G.Resident.mkv
    Format : Matroska
    Format version : Version 4 / Version 2
    File size : 2.56 GiB
    Duration : 1 h 52 min
    Overall bit rate : 3 265 kb/s
    Movie name : TMNT_OUT_OF_THE_SHADOWS.2016.BDRip-AVC.Rip.by.White Smoke.R.G.Resident.mkv
    Encoded date : UTC 2016-09-11 04:37:30
    Writing application : mkvmerge v6.8.0 ('Theme for Great Cities') 64bit built on Mar 2 2014 21:34:26
    Writing library : libebml v1.3.0 + libmatroska v1.4.1

    Video
    ID : 1
    Format : AVC
    Format/Info : Advanced Video Codec
    Format profile : High@L4.1
    Format settings, CABAC : Yes
    Format settings, ReFrames : 12 frames
    Codec ID : V_MPEG4/ISO/AVC
    Duration : 1 h 52 min
    Bit rate : 2 817 kb/s
    Width : 1 024 pixels
    Height : 426 pixels
    Display aspect ratio : 2.40:1
    Frame rate mode : Constant
    Frame rate : 23.976 (24000/1001) FPS
    Color space : YUV
    Chroma subsampling : 4:2:0
    Bit depth : 8 bits
    Scan type : Progressive
    Bits/(Pixel*Frame) : 0.269
    Stream size : 2.16 GiB (84%)
    Writing library : x264 core 148 r2638 7599210
    Encoding settings : cabac=1 / ref=12 / deblock=1:-3:-3 / analyse=0x3:0x113 / me=umh / subme=9 / psy=1 / psy_rd=1.00:0.00 / mixed_ref=1 / me_range=32 / chroma_me=1 / trellis=2 / 8x8dct=1 / cqm=0 / deadzone=21,11 / fast_pskip=1 / chroma_qp_offset=-2 / threads=12 / lookahead_threads=3 / sliced_threads=0 / nr=0 / decimate=1 / interlaced=0 / bluray_compat=0 / constrained_intra=0 / bframes=12 / b_pyramid=2 / b_adapt=2 / b_bias=10 / direct=1 / weightb=0 / open_gop=0 / weightp=2 / keyint=240 / keyint_min=23 / scenecut=40 / intra_refresh=0 / rc_lookahead=40 / rc=2pass / mbtree=1 / bitrate=2817 / ratetol=1.0 / qcomp=0.85 / qpmin=0 / qpmax=69 / qpstep=4 / cplxblur=20.0 / qblur=0.5 / ip_ratio=1.40 / aq=1:1.00
    Language : English
    Default : Yes
    Forced : No

    Audio
    ID : 2
    Format : AC-3
    Format/Info : Audio Coding 3
    Mode extension : CM (complete main)
    Format settings, Endianness : Big
    Codec ID : A_AC3
    Duration : 1 h 52 min
    Bit rate mode : Constant
    Bit rate : 448 kb/s
    Channel(s) : 6 channels
    Channel positions : Front: L C R, Side: L R, LFE
    Sampling rate : 48.0 kHz
    Frame rate : 31.250 FPS (1536 spf)
    Compression mode : Lossy
    Stream size : 359 MiB (14%)
    Default : Yes
    Forced : No

    Text #1
    ID : 3
    Format : UTF-8
    Codec ID : S_TEXT/UTF8
    Codec ID/Info : UTF-8 Plain Text
    Title : Forced
    Language : Russian
    Default : Yes
    Forced : No

    Text #2
    ID : 4
    Format : UTF-8
    Codec ID : S_TEXT/UTF8
    Codec ID/Info : UTF-8 Plain Text
    Title : Full
    Language : Russian
    Default : No
    Forced : No

    Menu
    00:00:00.000 : en:00:00:00.000
    00:05:55.564 : en:00:05:55.564
    00:12:18.571 : en:00:12:18.571
    00:18:53.507 : en:00:18:53.507
    00:26:38.096 : en:00:26:38.096
    00:33:14.492 : en:00:33:14.492
    00:38:56.459 : en:00:38:56.459
    00:44:11.190 : en:00:44:11.190
    00:49:40.311 : en:00:49:40.311
    00:55:40.629 : en:00:55:40.629
    01:02:01.259 : en:01:02:01.259
    01:04:51.971 : en:01:04:51.971
    01:14:32.760 : en:01:14:32.760
    01:21:18.415 : en:01:21:18.415
    01:28:10.160 : en:01:28:10.160
    01:36:58.229 : en:01:36:58.229
    01:41:52.023 : en:01:41:52.023
    01:46:20.874 : en:01:46:20.874
7.0 из 10
голосов: 6
/10
/10
WhiteSmoke 11-09-2016, 09:55
Информация
Посетители, находящиеся в группе Гости, не могут оставлять комментарии к данной публикации.