Панель пользователя
Регистрация

Воспользуйтесь социальными сетями для входа на https://freerutor.com

vk odnoklassniki facebook mailru yandex google
Популярное
Счетчик
Голосуй за нас
VIP на сайте
Популярное
Товары интернет магазина
загрузка...

Люди Икс: Апокалипсис (2016) BDRip 720р | iTunes | R.G.Resident

Люди Икс: Апокалипсис (2016) BDRip 720р | iTunes | R.G.Resident
Участники торрент обмена
Сидов Пиров Скачали
19 1 1404
Характеристика
Размер Файлы
5.55 GB
Релиз группа
Поделиться раздачей
Фильмы (720,1080,Blu-Ray)
Наименование: Люди Икс: Апокалипсис
Оригинальное наименование: X-Men: Apocalypse
Категория: фантастика, боевик, приключения
Произведено: США
Режиссер постановщик: Брайан Сингер
В главных ролях: Джеймс МакЭвой, Майкл Фассбендер, Дженнифер Лоуренс, Николас Холт, Оскар Айзек, Роуз Бирн, Эван Питерс, Джош Хелман, Софи Тернер, Тай Шеридан
Краткое описание: События «Дней Минувшего Будущего» оказали колоссальное влияние на мир, где мутанты и люди борются за свое место под Солнцем. В это нелегкое время Людям Икс предстоит столкнуться со своим самым опасным противником - древним мутантом Апокалипсисом, существом, схватка с которым может стать последней не только для мутантов, но и в принципе для всего человечества. В поисках способа победы над неуязвимым и бессмертным монстром Людям Икс предстоит узнать больше о происхождении своего вида. Но Апокалипсис неимоверно силен, и вероятность победы все уменьшается, ведь он твердо убежден, что только сильнейшие имеют право на выживание...
  • Видео данные: MPEG-4 AVC, 4497 Кбит/с, 1280x534
    Аудио данные: Русский (AC3, 6 ch, 384 Кбит/с), английский (АС3, 6 ch, 640 Кбит/с)
    Перевод: Дубляж - [iTunes]
    Продолжительность: 02:23:58
    Субтитры: русские (Forced), русские (Full), английские (Full)
  • Люди Икс: Апокалипсис (2016) BDRip 720р | iTunes | R.G.Resident Люди Икс: Апокалипсис (2016) BDRip 720р | iTunes | R.G.Resident Люди Икс: Апокалипсис (2016) BDRip 720р | iTunes | R.G.Resident
  • x264 [info]: frame I:2195 Avg QP:13.17 size:150347
    x264 [info]: frame P:52695 Avg QP:16.86 size: 44856
    x264 [info]: frame B:152174 Avg QP:18.51 size: 14201

    General
    Unique ID : 218287640811857604496194474163833335021 (0xA438AB9EDED3A816A23A7A0F4186ECED)
    Название : D:\download\X-Men.Apocalypse.2016.BDRip-720р by schultz R.G.Resident.mkv
    Формат : Matroska
    Формат version : Version 4 / Version 2
    Размер файла : 5.55 GiB
    Длительность : 2 h 23 min
    Общий Битрейт : 5 522 kb/s
    Encoded date : UTC 2016-09-10 07:50:25
    Создано приложением : mkvmerge v8.9.0 ('Father Daughter') 64bit
    Writing library : libebml v1.3.3 + libmatroska v1.4.4

    Video
    ID : 1
    Формат : AVC
    Формат/Info : Advanced Video Кодек
    Формат profile : High@L4.1
    Формат настройки, CABAC : Yes
    Формат настройки, ReFrames : 12 frames
    Кодек ID : V_MPEG4/ISO/AVC
    Длительность : 2 h 23 min
    Битрейт : 4 497 kb/s
    Width : 1 280 пикселей
    Высота : 534 пикселей
    Соотношение кадра : 2.40:1
    Частота кадров mode : Constant
    Частота кадров : 23.976 (23976/1000) FPS
    Цветопередача : YUV
    Chroma subsampling : 4:2:0
    Разрядность : 8 bits
    Тип сканирования : Progressive
    Bits/(Pixel*Frame) : 0.274
    Размер потока : 4.52 GiB (81%)
    Writing library : x264 core 146 r2538 121396c
    Encoding настройки : cabac=1 / ref=12 / deblock=1:-3:-3 / analyse=0x3:0x113 / me=umh / subme=11 / psy=1 / psy_rd=1.00:0.00 / mixed_ref=1 / me_range=48 / chroma_me=1 / trellis=2 / 8x8dct=1 / cqm=0 / deadzone=21,11 / fast_pskip=0 / chroma_qp_offset=-2 / threads=12 / lookahead_threads=3 / sliced_threads=0 / nr=0 / decimate=0 / interlaced=0 / bluray_compat=0 / constrained_intra=0 / bframes=11 / b_pyramid=2 / b_adapt=2 / b_bias=0 / direct=3 / weightb=1 / open_gop=0 / weightp=2 / keyint=240 / keyint_min=23 / scenecut=40 / intra_refresh=0 / rc_lookahead=40 / rc=2pass / mbtree=1 / bitrate=4497 / ratetol=1.0 / qcomp=0.60 / qpmin=0 / qpmax=69 / qpstep=4 / cplxblur=20.0 / qblur=0.5 / vbv_maxrate=50000 / vbv_bufsize=62500 / nal_hrd=none / filler=0 / ip_ratio=1.40 / aq=1:1.00
    Язык : English
    Default : Yes
    Forced : No

    Audio #1
    ID : 2
    Формат : AC-3
    Формат/Info : Audio Coding 3
    Расширение режима : CM (complete main)
    Формат настройки, Endianness : Big
    Кодек ID : A_AC3
    Длительность : 2 h 23 min
    Битрейт mode : Constant
    Битрейт : 384 kb/s
    Channel(s) : 6 каналов
    Channel positions : Front: L C R, Side: L R, LFE
    Частота : 48.0 kHz
    Частота кадров : 31.250 FPS (1536 spf)
    Режим сжатия : Lossy
    Размер потока : 395 MiB (7%)
    Язык : Russian
    Default : Yes
    Forced : No

    Audio #2
    ID : 3
    Формат : AC-3
    Формат/Info : Audio Coding 3
    Расширение режима : CM (complete main)
    Формат настройки, Endianness : Big
    Кодек ID : A_AC3
    Длительность : 2 h 23 min
    Битрейт mode : Constant
    Битрейт : 640 kb/s
    Channel(s) : 6 каналов
    Channel positions : Front: L C R, Side: L R, LFE
    Частота : 48.0 kHz
    Частота кадров : 31.250 FPS (1536 spf)
    Режим сжатия : Lossy
    Размер потока : 659 MiB (12%)
    Язык : English
    Default : No
    Forced : No

    Text #1
    ID : 4
    Формат : UTF-8
    Кодек ID : S_TEXT/UTF8
    Кодек ID/Info : UTF-8 Plain Text
    Длительность : 1 h 26 min
    Битрейт : 4 b/s
    Count of elements : 95
    Размер потока : 3.12 KiB (0%)
    Title : Forced
    Язык : Russian
    Default : Yes
    Forced : No

    Text #2
    ID : 5
    Формат : UTF-8
    Кодек ID : S_TEXT/UTF8
    Кодек ID/Info : UTF-8 Plain Text
    Длительность : 2 h 22 min
    Битрейт : 56 b/s
    Count of elements : 1442
    Размер потока : 59.1 KiB (0%)
    Title : Full
    Язык : Russian
    Default : No
    Forced : No

    Text #3
    ID : 6
    Формат : UTF-8
    Кодек ID : S_TEXT/UTF8
    Кодек ID/Info : UTF-8 Plain Text
    Длительность : 2 h 12 min
    Битрейт : 38 b/s
    Count of elements : 1458
    Размер потока : 37.6 KiB (0%)
    Title : Full
    Язык : English
    Default : No
    Forced : No

    Menu
    00:00:00.000 : en:00:00:00.000
    00:08:18.790 : en:00:08:18.790
    00:14:13.186 : en:00:14:13.186
    00:18:07.086 : en:00:18:07.086
    00:24:55.494 : en:00:24:55.494
    00:30:45.343 : en:00:30:45.343
    00:36:35.235 : en:00:36:35.235
    00:41:00.083 : en:00:41:00.083
    00:45:56.504 : en:00:45:56.504
    00:49:24.295 : en:00:49:24.295
    00:55:22.611 : en:00:55:22.611
    00:59:36.823 : en:00:59:36.823
    01:04:43.671 : en:01:04:43.671
    01:12:35.851 : en:01:12:35.851
    01:17:32.898 : en:01:17:32.898
    01:22:18.517 : en:01:22:18.517
    01:27:45.594 : en:01:27:45.594
    01:34:05.807 : en:01:34:05.807
    01:36:46.634 : en:01:36:46.634
    01:39:50.902 : en:01:39:50.902
    01:43:34.375 : en:01:43:34.375
    01:49:57.382 : en:01:49:57.382
    01:55:08.360 : en:01:55:08.360
    01:57:21.660 : en:01:57:21.660
    02:03:50.548 : en:02:03:50.548
    02:07:56.711 : en:02:07:56.711
    02:10:59.101 : en:02:10:59.101
    02:12:54.091 : en:02:12:54.091
9.7 из 10
голосов: 7
/10
/10
schultz 10-09-2016, 11:46
Информация
Посетители, находящиеся в группе Гости, не могут оставлять комментарии к данной публикации.