Панель пользователя
Регистрация

Воспользуйтесь социальными сетями для входа на https://freerutor.com

vk odnoklassniki facebook mailru yandex google
Популярное
Счетчик
Голосуй за нас
VIP на сайте
Популярное
Товары интернет магазина
загрузка...

Варкрафт (2016) BD-Remux 1080p | iTunes

Варкрафт (2016) BD-Remux 1080p | iTunes
Участники торрент обмена
Сидов Пиров Скачали
36 5 6027
Характеристика
Размер Файлы
22.76 GB
Релиз группа
Поделиться раздачей
Фильмы (AVC)
Наименование: Варкрафт
Оригинальное наименование: Warcraft
Категория: Фэнтези, боевик, приключения
Произведено: Китай, Канада, Япония, США / Universal Pictures,
Режиссер постановщик: Дункан Джонс
В главных ролях: Трэвис Фиммел, Пола Пэттон, Бен Фостер, Доминик Купер, Тоби Кеббелл, Бен Шнетцер, Роберт Казински, Клэнси Браун, Дэниэл Ву, Рут Негга
Краткое описание: Веками магия и неприступные стены защищали людей от любых напастей. Но древнее зло, побежденное и забытое тысячелетия назад, пробудилось. В самом сердце королевства открылся темный портал, и раса невиданных существ наводнила земли Азерота. Так начались события, призванные навсегда изменить судьбу этого мира.
  • Видео данные: MPEG-4 AVC, 21291 Кбит/с, 1920x1080
    Аудио данные: Русский (AC3, 6 ch, 384 Кбит/с), английский (TrueHD, 6 ch, 4834 Кбит/с)
    Перевод: Дублированный [iTunes]
    Субтитры: Русские, английские
    Продолжительность: 02:03:47
  • Варкрафт (2016) BD-Remux 1080p | iTunes Варкрафт (2016) BD-Remux 1080p | iTunes Варкрафт (2016) BD-Remux 1080p | iTunes
  • General
    Unique ID : 180280929318431954368632997033462664597 (0x87A0D8118A21A14B96862A0F7A6B0D95)
    Complete name : G:\Video\Warcraft.2016.BDREMUX.1080p.ExKinoRay.mkv
    Format : Matroska
    Format version : Version 4 / Version 2
    File size : 22.8 GiB
    Duration : 2 h 3 min
    Overall bit rate mode : Variable
    Overall bit rate : 26.5 Mb/s
    Movie name : build by ***селезень***
    Encoded date : UTC 2016-09-10 02:49:40
    Writing application : mkvmerge v8.3.0 ('Over the Horizon') 64bit
    Writing library : libebml v1.3.1 + libmatroska v1.4.2

    Video
    ID : 1
    Format : AVC
    Format/Info : Advanced Video Codec
    Format profile : High@L4.1
    Format settings, CABAC : Yes
    Format settings, ReFrames : 4 frames
    Codec ID : V_MPEG4/ISO/AVC
    Duration : 2 h 3 min
    Bit rate mode : Variable
    Bit rate : 21.2 Mb/s
    Maximum bit rate : 31.5 Mb/s
    Width : 1 920 pixels
    Height : 1 080 pixels
    Display aspect ratio : 16:9
    Frame rate mode : Constant
    Frame rate : 23.976 (24000/1001) FPS
    Color space : YUV
    Chroma subsampling : 4:2:0
    Bit depth : 8 bits
    Scan type : Progressive
    Bits/(Pixel*Frame) : 0.426
    Stream size : 18.2 GiB (80%)
    Title : build by ***селезень***
    Language : English
    Default : Yes
    Forced : No

    Audio #1
    ID : 2
    Format : AC-3
    Format/Info : Audio Coding 3
    Mode extension : CM (complete main)
    Format settings, Endianness : Big
    Codec ID : A_AC3
    Duration : 2 h 3 min
    Bit rate mode : Constant
    Bit rate : 384 kb/s
    Channel(s) : 6 channels
    Channel positions : Front: L C R, Side: L R, LFE
    Sampling rate : 48.0 kHz
    Frame rate : 31.250 FPS (1536 spf)
    Compression mode : Lossy
    Stream size : 338 MiB (1%)
    Title : DUB [iTunes]
    Language : Russian
    Default : Yes
    Forced : No

    Audio #2
    ID : 3
    Format : Atmos / TrueHD
    Codec ID : A_TRUEHD
    Duration : 2 h 3 min
    Bit rate mode : Variable
    Bit rate : 4 834 kb/s
    Maximum bit rate : 7 893 kb/s
    Channel(s) : Object Based / 8 channels
    Channel positions : Object Based / Front: L C R, Side: L R, Back: L R, LFE
    Sampling rate : / 48.0 kHz
    Frame rate : 1 200.000 FPS (40 spf)
    Compression mode : Lossless
    Stream size : 4.16 GiB (18%)
    Title : Original
    Language : English
    Default : No
    Forced : No

    Text #1
    ID : 4
    Format : UTF-8
    Codec ID : S_TEXT/UTF8
    Codec ID/Info : UTF-8 Plain Text
    Duration : 1 h 55 min
    Bit rate : 57 b/s
    Count of elements : 1054
    Stream size : 48.4 KiB (0%)
    Title : Full
    Language : Russian
    Default : No
    Forced : No

    Text #2
    ID : 5
    Format : UTF-8
    Codec ID : S_TEXT/UTF8
    Codec ID/Info : UTF-8 Plain Text
    Duration : 1 h 52 min
    Bit rate : 36 b/s
    Count of elements : 1235
    Stream size : 30.2 KiB (0%)
    Title : Full
    Language : English
    Default : No
    Forced : No

    Text #3
    ID : 6
    Format : UTF-8
    Codec ID : S_TEXT/UTF8
    Codec ID/Info : UTF-8 Plain Text
    Duration : 1 h 53 min
    Bit rate : 42 b/s
    Count of elements : 1394
    Stream size : 35.0 KiB (0%)
    Title : SDH
    Language : English
    Default : No
    Forced : No

    Menu
    00:00:00.000 : en:00:00:00.000
    00:09:26.483 : en:00:09:26.483
    00:15:49.407 : en:00:15:49.407
    00:22:36.146 : en:00:22:36.146
    00:29:16.171 : en:00:29:16.171
    00:38:43.321 : en:00:38:43.321
    00:46:44.093 : en:00:46:44.093
    00:53:02.679 : en:00:53:02.679
    00:56:17.332 : en:00:56:17.332
    01:02:43.927 : en:01:02:43.927
    01:07:48.314 : en:01:07:48.314
    01:12:24.549 : en:01:12:24.549
    01:17:13.045 : en:01:17:13.045
    01:22:45.669 : en:01:22:45.669
    01:26:32.145 : en:01:26:32.145
    01:32:29.669 : en:01:32:29.669
    01:40:25.102 : en:01:40:25.102
    01:47:38.118 : en:01:47:38.118
    01:51:12.833 : en:01:51:12.833
    01:53:58.832 : en:01:53:58.832
7.8 из 10
голосов: 8
/10
/10
grab777 10-09-2016, 07:01
Информация
Посетители, находящиеся в группе Гости, не могут оставлять комментарии к данной публикации.