Панель пользователя
Регистрация

Воспользуйтесь социальными сетями для входа на https://freerutor.com

vk odnoklassniki facebook mailru yandex google
Популярное
Счетчик
Голосуй за нас
VIP на сайте
Популярное
Товары интернет магазина
загрузка...

Люди Икс: Апокалипсис (2016) BDRip-AVC | iTunes | R.G.Resident

Люди Икс: Апокалипсис (2016) BDRip-AVC | iTunes | R.G.Resident
Участники торрент обмена
Сидов Пиров Скачали
203 24 62346
Характеристика
Размер Файлы
3.33 GB
Релиз группа
Поделиться раздачей
Фильмы (AVC)
Наименование: Люди Икс: Апокалипсис
Оригинальное наименование: X-Men: Apocalypse
Категория: фантастика, боевик, приключения
Произведено: США
Режиссер постановщик: Брайан Сингер
В главных ролях: Джеймс МакЭвой, Майкл Фассбендер, Дженнифер Лоуренс, Николас Холт, Оскар Айзек, Роуз Бирн, Эван Питерс, Джош Хелман, Софи Тернер, Тай Шеридан
Краткое описание: События «Дней Минувшего Будущего» оказали колоссальное влияние на мир, где мутанты и люди борются за свое место под Солнцем. В это нелегкое время Людям Икс предстоит столкнуться со своим самым опасным противником - древним мутантом Апокалипсисом, существом, схватка с которым может стать последней не только для мутантов, но и в принципе для всего человечества. В поисках способа победы над неуязвимым и бессмертным монстром Людям Икс предстоит узнать больше о происхождении своего вида. Но Апокалипсис неимоверно силен, и вероятность победы все уменьшается, ведь он твердо убежден, что только сильнейшие имеют право на выживание...
  • Видео данные: MPEG-4 AVC, 2478 Кбит/с, 1024x426
    Аудио данные: Русский (AC3, 6 ch, 384 Кбит/с), английский (АС3, 6 ch, 448 Кбит/с)
    Перевод: Дубляж - [iTunes]
    Продолжительность: 02:23:58
    Субтитры: русские (Forced), русские (Full), английские (Full)
  • Люди Икс: Апокалипсис (2016) BDRip-AVC | iTunes | R.G.Resident Люди Икс: Апокалипсис (2016) BDRip-AVC | iTunes | R.G.Resident Люди Икс: Апокалипсис (2016) BDRip-AVC | iTunes | R.G.Resident
  • General
    Unique ID : 214525129284927540264699084338796538299 (0xA164097AE2C3D18E92AB7E1E69A1A9BB)
    Complete name : D:downloadX-Men.Apocalypse.2016.BDRip-AVC by schultz R.G.Resident.mkv
    Format : Matroska
    Format version : Version 4 / Version 2
    File size : 3.33 GiB
    Duration : 2 h 23 min
    Overall bit rate : 3 312 kb/s
    Encoded date : UTC 2016-09-09 18:03:47
    Writing application : mkvmerge v8.9.0 ('Father Daughter') 64bit
    Writing library : libebml v1.3.3 + libmatroska v1.4.4

    Video
    ID : 1
    Format : AVC
    Format/Info : Advanced Video Codec
    Format profile : High@L4.1
    Format settings, CABAC : Yes
    Format settings, ReFrames : 12 frames
    Codec ID : V_MPEG4/ISO/AVC
    Duration : 2 h 23 min
    Bit rate : 2 478 kb/s
    Width : 1 024 pixels
    Height : 426 pixels
    Display aspect ratio : 2.40:1
    Frame rate mode : Constant
    Frame rate : 23.976 (23976/1000) FPS
    Color space : YUV
    Chroma subsampling : 4:2:0
    Bit depth : 8 bits
    Scan type : Progressive
    Bits/(Pixel*Frame) : 0.237
    Stream size : 2.49 GiB (75%)
    Writing library : x264 core 146 r2538 121396c
    Encoding settings : cabac=1 / ref=12 / deblock=1:-3:-3 / analyse=0x3:0x113 / me=umh / subme=11 / psy=1 / psy_rd=1.00:0.00 / mixed_ref=1 / me_range=48 / chroma_me=1 / trellis=2 / 8x8dct=1 / cqm=0 / deadzone=21,11 / fast_pskip=0 / chroma_qp_offset=-2 / threads=12 / lookahead_threads=3 / sliced_threads=0 / nr=0 / decimate=0 / interlaced=0 / bluray_compat=0 / constrained_intra=0 / bframes=11 / b_pyramid=2 / b_adapt=2 / b_bias=0 / direct=3 / weightb=1 / open_gop=0 / weightp=2 / keyint=240 / keyint_min=23 / scenecut=40 / intra_refresh=0 / rc_lookahead=40 / rc=2pass / mbtree=1 / bitrate=2478 / ratetol=1.0 / qcomp=0.60 / qpmin=0 / qpmax=69 / qpstep=4 / cplxblur=20.0 / qblur=0.5 / vbv_maxrate=50000 / vbv_bufsize=62500 / nal_hrd=none / filler=0 / ip_ratio=1.40 / aq=1:1.00
    Language : English
    Default : Yes
    Forced : No

    Audio #1
    ID : 2
    Format : AC-3
    Format/Info : Audio Coding 3
    Mode extension : CM (complete main)
    Format settings, Endianness : Big
    Codec ID : A_AC3
    Duration : 2 h 23 min
    Bit rate mode : Constant
    Bit rate : 384 kb/s
    Channel(s) : 6 channels
    Channel positions : Front: L C R, Side: L R, LFE
    Sampling rate : 48.0 kHz
    Frame rate : 31.250 FPS (1536 spf)
    Compression mode : Lossy
    Stream size : 395 MiB (12%)
    Language : Russian
    Default : Yes
    Forced : No

    Audio #2
    ID : 3
    Format : AC-3
    Format/Info : Audio Coding 3
    Mode extension : CM (complete main)
    Format settings, Endianness : Big
    Codec ID : A_AC3
    Duration : 2 h 23 min
    Bit rate mode : Constant
    Bit rate : 448 kb/s
    Channel(s) : 6 channels
    Channel positions : Front: L C R, Side: L R, LFE
    Sampling rate : 48.0 kHz
    Frame rate : 31.250 FPS (1536 spf)
    Compression mode : Lossy
    Stream size : 461 MiB (14%)
    Language : English
    Default : No
    Forced : No

    Text #1
    ID : 4
    Format : UTF-8
    Codec ID : S_TEXT/UTF8
    Codec ID/Info : UTF-8 Plain Text
    Duration : 1 h 26 min
    Bit rate : 4 b/s
    Count of elements : 95
    Stream size : 3.12 KiB (0%)
    Title : Forced
    Language : Russian
    Default : Yes
    Forced : No

    Text #2
    ID : 5
    Format : UTF-8
    Codec ID : S_TEXT/UTF8
    Codec ID/Info : UTF-8 Plain Text
    Duration : 2 h 22 min
    Bit rate : 56 b/s
    Count of elements : 1442
    Stream size : 59.1 KiB (0%)
    Title : Full
    Language : Russian
    Default : No
    Forced : No

    Text #3
    ID : 6
    Format : UTF-8
    Codec ID : S_TEXT/UTF8
    Codec ID/Info : UTF-8 Plain Text
    Duration : 2 h 12 min
    Bit rate : 38 b/s
    Count of elements : 1458
    Stream size : 37.6 KiB (0%)
    Title : Full
    Language : English
    Default : No
    Forced : No

    Menu
    00:00:00.000 : en:00:00:00.000
    00:08:18.790 : en:00:08:18.790
    00:14:13.186 : en:00:14:13.186
    00:18:07.086 : en:00:18:07.086
    00:24:55.494 : en:00:24:55.494
    00:30:45.343 : en:00:30:45.343
    00:36:35.235 : en:00:36:35.235
    00:41:00.083 : en:00:41:00.083
    00:45:56.504 : en:00:45:56.504
    00:49:24.295 : en:00:49:24.295
    00:55:22.611 : en:00:55:22.611
    00:59:36.823 : en:00:59:36.823
    01:04:43.671 : en:01:04:43.671
    01:12:35.851 : en:01:12:35.851
    01:17:32.898 : en:01:17:32.898
    01:22:18.517 : en:01:22:18.517
    01:27:45.594 : en:01:27:45.594
    01:34:05.807 : en:01:34:05.807
    01:36:46.634 : en:01:36:46.634
    01:39:50.902 : en:01:39:50.902
    01:43:34.375 : en:01:43:34.375
    01:49:57.382 : en:01:49:57.382
    01:55:08.360 : en:01:55:08.360
    01:57:21.660 : en:01:57:21.660
    02:03:50.548 : en:02:03:50.548
    02:07:56.711 : en:02:07:56.711
    02:10:59.101 : en:02:10:59.101
    02:12:54.091 : en:02:12:54.091
10.0 из 10
голосов: 3
/10
/10
schultz 9-09-2016, 21:46
Информация
Посетители, находящиеся в группе Гости, не могут оставлять комментарии к данной публикации.