Панель пользователя
Регистрация

Воспользуйтесь социальными сетями для входа на https://freerutor.com

vk odnoklassniki facebook mailru yandex google
Популярное
Счетчик
Голосуй за нас
VIP на сайте
Популярное
Товары интернет магазина
загрузка...

Люди Икс: Апокалипсис (2016) Blu-Ray Remux 1080p | iTunes

Люди Икс: Апокалипсис (2016) Blu-Ray Remux 1080p | iTunes
Участники торрент обмена
Сидов Пиров Скачали
11 0 3321
Характеристика
Размер Файлы
29.18 GB
Релиз группа
Поделиться раздачей
Фильмы (720,1080,Blu-Ray)
Наименование: Люди Икс: Апокалипсис
Оригинальное наименование: X-Men: Apocalypse
Категория: Фантастика, фэнтези, боевик, приключения
Произведено: США, 20th Century Fox Film Corporation, Bad Hat Harry Productions, Donners' Company, Marvel Entertainment
Режиссер: Брайан Сингер
В ролях: Джеймс МакЭвой, Майкл Фассбендер, Дженнифер Лоуренс, Эван Питерс, Оливия Манн, Роуз Бирн, Оскар Айзек, Софи Тёрнер, Николас Холт, Тай Шеридан, Бен Харди
Краткое описание: После событий "Дней минувшего будущего" мировое сообщество начинает осознавать присутствие среди обычных людей мутантов со сверхчеловеческими способностями. Но спокойно разобраться с внезапно вскрывшимися подробностями не позволяет случайно разбуженный от многовекового сна древний мутант Эн Сабах Нур, несущий апокалипсис в раздираемый противоречиями мир уже сегодня. Людям Икс предстоит решающая битва с самым могущественным врагом из тех, с кем им приходилось сталкиваться ранее.
  • Видео данные: MPEG-4 AVC, 23.4 Mбит/с, 1920x1080
    Аудио данные: Русский (AC3, 6 ch, 384 Кбит/с), английский (DTS-HD MA, 8 ch, 5216 Кбит/с)
    Перевод: Дублированный [iTunes]
    Продолжительность: 02:23:58
    Субтитры: Русские, английские
    Релиз без рекламы.
  • Люди Икс: Апокалипсис (2016) Blu-Ray Remux 1080p | iTunes Люди Икс: Апокалипсис (2016) Blu-Ray Remux 1080p | iTunes Люди Икс: Апокалипсис (2016) Blu-Ray Remux 1080p | iTunes
  • General
    Unique ID : 224711164875184852346122027607603124323 (0xA90DCBCEFCBFCD84A6FFD89F45A19863)
    Complete name : G:\Video\X-Men.Apocalypse.2016.BDREMUX.1080p.ExKinoRay.mkv
    Format : Matroska
    Format version : Version 4 / Version 2
    File size : 29.2 GiB
    Duration : 2 h 23 min
    Overall bit rate mode : Variable
    Overall bit rate : 29.0 Mb/s
    Movie name : build by ***селезень***
    Encoded date : UTC 2016-09-09 03:55:26
    Writing application : mkvmerge v8.3.0 ('Over the Horizon') 64bit
    Writing library : libebml v1.3.1 + libmatroska v1.4.2

    Video
    ID : 1
    Format : AVC
    Format/Info : Advanced Video Codec
    Format profile : High@L4.1
    Format settings, CABAC : Yes
    Format settings, ReFrames : 4 frames
    Codec ID : V_MPEG4/ISO/AVC
    Duration : 2 h 23 min
    Bit rate mode : Variable
    Bit rate : 23.4 Mb/s
    Maximum bit rate : 34.0 Mb/s
    Width : 1 920 pixels
    Height : 1 080 pixels
    Display aspect ratio : 16:9
    Frame rate mode : Constant
    Frame rate : 23.976 (24000/1001) FPS
    Color space : YUV
    Chroma subsampling : 4:2:0
    Bit depth : 8 bits
    Scan type : Progressive
    Bits/(Pixel*Frame) : 0.471
    Stream size : 23.5 GiB (81%)
    Title : build by ***селезень***
    Language : English
    Default : Yes
    Forced : No

    Audio #1
    ID : 2
    Format : AC-3
    Format/Info : Audio Coding 3
    Mode extension : CM (complete main)
    Format settings, Endianness : Big
    Codec ID : A_AC3
    Duration : 2 h 23 min
    Bit rate mode : Constant
    Bit rate : 384 kb/s
    Channel(s) : 6 channels
    Channel positions : Front: L C R, Side: L R, LFE
    Sampling rate : 48.0 kHz
    Frame rate : 31.250 FPS (1536 spf)
    Compression mode : Lossy
    Stream size : 395 MiB (1%)
    Title : DUB [iTunes]
    Language : Russian
    Default : Yes
    Forced : No

    Audio #2
    ID : 3
    Format : DTS
    Format/Info : Digital Theater Systems
    Format profile : MA / ES Matrix / Core
    Mode : 16
    Format settings, Endianness : Big
    Codec ID : A_DTS
    Duration : 2 h 23 min
    Bit rate mode : Variable / Constant / Constant
    Bit rate : 5 216 kb/s / 1 509 kb/s / 1 509 kb/s
    Channel(s) : 8 channels / 7 channels / 6 channels
    Channel positions : Front: L C R, Side: L R, Back: L R, LFE / Front: L C R, Side: L R, Back: C, LFE / Front: L C R, Side: L R, LFE
    Sampling rate : 48.0 kHz
    Frame rate : 93.750 FPS (512 spf)
    Bit depth : 24 bits
    Compression mode : Lossless / Lossy / Lossy
    Stream size : 5.24 GiB (18%)
    Title : Original
    Language : English
    Default : No
    Forced : No

    Text #1
    ID : 4
    Format : UTF-8
    Codec ID : S_TEXT/UTF8
    Codec ID/Info : UTF-8 Plain Text
    Duration : 1 h 26 min
    Bit rate : 4 b/s
    Count of elements : 95
    Stream size : 3.12 KiB (0%)
    Title : Forced
    Language : Russian
    Default : Yes
    Forced : No

    Text #2
    ID : 5
    Format : UTF-8
    Codec ID : S_TEXT/UTF8
    Codec ID/Info : UTF-8 Plain Text
    Duration : 2 h 22 min
    Bit rate : 56 b/s
    Count of elements : 1442
    Stream size : 59.1 KiB (0%)
    Title : Full
    Language : Russian
    Default : No
    Forced : No

    Text #3
    ID : 6
    Format : UTF-8
    Codec ID : S_TEXT/UTF8
    Codec ID/Info : UTF-8 Plain Text
    Duration : 2 h 12 min
    Bit rate : 38 b/s
    Count of elements : 1458
    Stream size : 37.6 KiB (0%)
    Title : Full
    Language : English
    Default : No
    Forced : No

    Menu
    00:00:00.000 : en:00:00:00.000
    00:08:18.790 : en:00:08:18.790
    00:14:13.186 : en:00:14:13.186
    00:18:07.086 : en:00:18:07.086
    00:24:55.494 : en:00:24:55.494
    00:30:45.343 : en:00:30:45.343
    00:36:35.235 : en:00:36:35.235
    00:41:00.083 : en:00:41:00.083
    00:45:56.504 : en:00:45:56.504
    00:49:24.295 : en:00:49:24.295
    00:55:22.611 : en:00:55:22.611
    00:59:36.823 : en:00:59:36.823
    01:04:43.671 : en:01:04:43.671
    01:12:35.851 : en:01:12:35.851
    01:17:32.898 : en:01:17:32.898
    01:22:18.517 : en:01:22:18.517
    01:27:45.594 : en:01:27:45.594
    01:34:05.807 : en:01:34:05.807
    01:36:46.634 : en:01:36:46.634
    01:39:50.902 : en:01:39:50.902
    01:43:34.375 : en:01:43:34.375
    01:49:57.382 : en:01:49:57.382
    01:55:08.360 : en:01:55:08.360
    01:57:21.660 : en:01:57:21.660
    02:03:50.548 : en:02:03:50.548
    02:07:56.711 : en:02:07:56.711
    02:10:59.101 : en:02:10:59.101
    02:12:54.091 : en:02:12:54.091
7.0 из 10
голосов: 3
/10
/10
616759 9-09-2016, 19:43
Информация
Посетители, находящиеся в группе Гости, не могут оставлять комментарии к данной публикации.