Панель пользователя
Регистрация

Воспользуйтесь социальными сетями для входа на https://freerutor.com

vk odnoklassniki facebook mailru yandex google
Рекомендуем
Счетчик
Голосуй за нас
Популярное
Товары интернет магазина
загрузка...

Отмель (2016) Blu-Ray Remux 1080p | Лицензия

Отмель (2016) Blu-Ray Remux 1080p | Лицензия
Участники торрент обмена
Сидов Пиров Скачали
3 0 167
Характеристика
Размер Файлы
17.71 GB
Релиз группа
Поделиться раздачей
Фильмы (720,1080,Blu-Ray)
Название: Отмель
Оригинальное название: The Shallows
Жанр: Ужасы, триллер, драма
Выпущено: США, Columbia Pictures, Ombra Films, Weimaraner Republic Pictures
Режиссер: Жауме Коллет-Серра
В ролях: Блэйк Лайвли, Оскар Хаэнада, Бретт Каллен, Седона Ледже
Краткое описание: Бескрайний океан, безлюдный пляж и идеальная погода для серфингистов в поисках хорошей волны. Казалось бы, ничто не предвещает беды для очаровательной любительницы серфинга в одиночку. Разве что свидание тет-а-тет с гигантской акулой, которая загонит спортсменку на песчаную отмель и не отступит до тех пор, пока не получит своё.
  • Видео: MPEG-4 AVC, 24.9 Mбит/с, 1920x1080
    Аудио: Русский (AC3, 6 ch, 640 Кбит/с), английский (DTS-HD MA, 6 ch, 3840 Кбит/с)
    Продолжительность: 01:26:16
    Перевод: Дублированный (Лицензия)
    Субтитры: Русские (forced, full), английские
  • Отмель (2016) Blu-Ray Remux 1080p | Лицензия Отмель (2016) Blu-Ray Remux 1080p | Лицензия Отмель (2016) Blu-Ray Remux 1080p | Лицензия
  • Mediainfo

    General
    Unique ID : 222846539193110894424815494454815223016 (0xA7A6AEAA21C7C25EAF991D9655EFECE8)
    Complete name : G:VideoThe.Shallows.2016.DD.BDREMUX.1080p.ExKinoRay.mkv
    Format : Matroska
    Format version : Version 4 / Version 2
    File size : 17.7 GiB
    Duration : 1 h 26 min
    Overall bit rate mode : Variable
    Overall bit rate : 29.4 Mb/s
    Movie name : The.Shallows.2016 byild by ***селезень***
    Encoded date : UTC 2016-12-05 23:51:49
    Writing application : mkvmerge v8.3.0 ('Over the Horizon') 64bit
    Writing library : libebml v1.3.1 + libmatroska v1.4.2

    Video
    ID : 1
    Format : AVC
    Format/Info : Advanced Video Codec
    Format profile : High@L4.1
    Format settings, CABAC : Yes
    Format settings, ReFrames : 2 frames
    Format settings, GOP : M=1, N=10
    Codec ID : V_MPEG4/ISO/AVC
    Duration : 1 h 26 min
    Bit rate mode : Variable
    Bit rate : 24.9 Mb/s
    Width : 1 920 pixels
    Height : 1 080 pixels
    Display aspect ratio : 16:9
    Frame rate mode : Constant
    Frame rate : 23.976 (24000/1001) FPS
    Color space : YUV
    Chroma subsampling : 4:2:0
    Bit depth : 8 bits
    Scan type : Progressive
    Bits/(Pixel*Frame) : 0.501
    Stream size : 15.0 GiB (85%)
    Title : The.Shallows.2016 byild by ***селезень***
    Language : English
    Default : Yes
    Forced : No

    Audio #1
    ID : 2
    Format : AC-3
    Format/Info : Audio Coding 3
    Mode extension : CM (complete main)
    Format settings, Endianness : Big
    Codec ID : A_AC3
    Duration : 1 h 26 min
    Bit rate mode : Constant
    Bit rate : 640 kb/s
    Channel(s) : 6 channels
    Channel positions : Front: L C R, Side: L R, LFE
    Sampling rate : 48.0 kHz
    Frame rate : 31.250 FPS (1536 spf)
    Bit depth : 16 bits
    Compression mode : Lossy
    Stream size : 395 MiB (2%)
    Title : Dub [License]
    Language : Russian
    Default : Yes
    Forced : No

    Audio #2
    ID : 3
    Format : DTS
    Format/Info : Digital Theater Systems
    Format profile : MA / Core
    Mode : 16
    Format settings, Endianness : Big
    Codec ID : A_DTS
    Duration : 1 h 26 min
    Bit rate mode : Variable / Constant
    Bit rate : 3 840 kb/s / 1 509 kb/s
    Channel(s) : 6 channels
    Channel positions : Front: L C R, Side: L R, LFE
    Sampling rate : 48.0 kHz
    Frame rate : 93.750 FPS (512 spf)
    Bit depth : 24 bits
    Compression mode : Lossless / Lossy
    Stream size : 2.33 GiB (13%)
    Title : Original
    Language : English
    Default : No
    Forced : No

    Text #1
    ID : 4
    Format : UTF-8
    Codec ID : S_TEXT/UTF8
    Codec ID/Info : UTF-8 Plain Text
    Duration : 1 h 19 min
    Bit rate : 1 b/s
    Count of elements : 36
    Stream size : 1.00 KiB (0%)
    Title : Forced [iTunes]
    Language : Russian
    Default : Yes
    Forced : No

    Text #2
    ID : 5
    Format : UTF-8
    Codec ID : S_TEXT/UTF8
    Codec ID/Info : UTF-8 Plain Text
    Duration : 1 h 19 min
    Bit rate : 27 b/s
    Count of elements : 460
    Stream size : 15.9 KiB (0%)
    Title : Full [iTunes]
    Language : Russian
    Default : No
    Forced : No

    Text #3
    ID : 6
    Format : UTF-8
    Codec ID : S_TEXT/UTF8
    Codec ID/Info : UTF-8 Plain Text
    Duration : 4 min 19 s
    Bit rate : 6 b/s
    Count of elements : 13
    Stream size : 200 Bytes (0%)
    Title : Forced [iTunes]
    Language : English
    Default : No
    Forced : No

    Text #4
    ID : 7
    Format : UTF-8
    Codec ID : S_TEXT/UTF8
    Codec ID/Info : UTF-8 Plain Text
    Duration : 1 h 17 min
    Bit rate : 18 b/s
    Count of elements : 446
    Stream size : 10.3 KiB (0%)
    Title : Full [iTunes]
    Language : English
    Default : No
    Forced : No

    Menu
    00:00:00.000 : en:1
    00:08:08.697 : en:2
    00:15:09.409 : en:3
    00:20:30.938 : en:4
    00:25:44.876 : en:5
    00:30:06.053 : en:6
    00:36:03.118 : en:7
    00:40:38.685 : en:8
    00:45:40.611 : en:9
    00:49:31.216 : en:10
    00:55:56.976 : en:11
    01:01:20.507 : en:12
    01:06:21.558 : en:13
    01:09:56.439 : en:14
    01:13:37.701 : en:15
    01:19:00.482 : en:16
9.0 из 10
голосов: 9
/10
/10
Раздачу отредактировал: Alik - 8-12-2016, 09:18
По причине: (Лицензия!)
Alik 8-12-2016, 09:18
Информация
Посетители, находящиеся в группе Гости, не могут оставлять комментарии к данной публикации.