Панель пользователя
Регистрация

Воспользуйтесь социальными сетями для входа на https://freerutor.com

vk odnoklassniki facebook mailru yandex google
Популярное
Счетчик
Голосуй за нас
VIP на сайте
Популярное
Товары интернет магазина
загрузка...

Черепашки-ниндзя 2 (2016) BDRip 1080p | Лицензия

Черепашки-ниндзя 2 (2016) BDRip 1080p | Лицензия
Участники торрент обмена
Сидов Пиров Скачали
64 2 5625
Характеристика
Размер Файлы
11.24 GB
Релиз группа
Поделиться раздачей
Фильмы (720,1080,Blu-Ray)
Наименование: Черепашки-ниндзя 2
Оригинальное наименование: Teenage Mutant Ninja Turtles: Out of the Shadows
Категория: Фантастика, боевик, комедия, приключения
Произведено: США, Гонконг, Китай, Канада
Режиссер постановщик: Дэйв Грин
В главных ролях: Меган Фокс / Megan Fox (April O'Neil), Уилл Арнетт / Will Arnett (Vernon Fenwick), Лора Линни / Laura Linney (Chief Vincent), Стивен Амелл / Stephen Amell (Casey Jones), Ноэль Фишер / Noel Fisher (Michelangelo), Джереми Ховард / Jeremy Howard (Donatello), Пит Пложек / Pete Ploszek (Leonardo), Алан Ричсон / Alan Ritchson (Raphael)
Краткое описание: Долгое время черепашки-ниндзя скрывались от людей в лабиринтах городской канализации. На протяжении нескольких лет учитель Сплинтер обучал их боевым искусствам и прививал им чувство справедливости. В один прекрасный момент им пришлось подняться наверх, чтобы спасти Нью-Йорк от Шредера, предводителя Клана Футов, захватившего власть в Нью-Йорке. Вместе с отважным репортером Эйприл и ее оператором Верном, бесстрашные воины смогли одержать победу и очистить любимый город от преступности. Леонардо, Микеланджело, Рафаэль и Донателло нашли свое предназначение в этом мире и стали защитниками своего города. Они навели порядок в Нью-Йорке и с чистой совестью могли отправиться на покой, но однажды им вновь пришлось столкнуться с могущественным врагом, угрожающим их городу.
  • Видео данные: MPEG-4 AVC, 13.1 Мбит/с, 1920x800
    Аудио данные: Русский, английский (AC3, 6 ch, 640 Кбит/с)
    Перевод: Дублированный [лицензия]
    Субтитры: Русские, английские
    Продолжительность: 01:52:07
  • Черепашки-ниндзя 2 (2016) BDRip 1080p | Лицензия Черепашки-ниндзя 2 (2016) BDRip 1080p | Лицензия Черепашки-ниндзя 2 (2016) BDRip 1080p | Лицензия
  • General
    Unique ID : 200635498417865028934479701575117026129 (0x96F0FDCE6C139C0BBD1D0D44F863B351)
    Complete name : G:VideoНовая папкаTeenage.Mutant.Ninja.Turtles.Out.Of.The.Shadows.2016.D.DRip.1080p.ExKinoRay.mkv
    Format : Matroska
    Format version : Version 4 / Version 2
    File size : 11.2 GiB
    Duration : 1 h 52 min
    Overall bit rate : 14.3 Mb/s
    Movie name : ***селезень***
    Encoded date : UTC 2016-09-10 04:03:28
    Writing application : mkvmerge v8.3.0 ('Over the Horizon') 64bit
    Writing library : libebml v1.3.1 + libmatroska v1.4.2

    Video
    ID : 1
    Format : AVC
    Format/Info : Advanced Video Codec
    Format profile : High@L4.1
    Format settings, CABAC : Yes
    Format settings, ReFrames : 5 frames
    Codec ID : V_MPEG4/ISO/AVC
    Duration : 1 h 52 min
    Bit rate : 13.1 Mb/s
    Width : 1 920 pixels
    Height : 800 pixels
    Display aspect ratio : 2.40:1
    Frame rate mode : Constant
    Frame rate : 23.976 (24000/1001) FPS
    Color space : YUV
    Chroma subsampling : 4:2:0
    Bit depth : 8 bits
    Scan type : Progressive
    Bits/(Pixel*Frame) : 0.355
    Stream size : 10.2 GiB (91%)
    Title : ***селезень***
    Writing library : x264 core 146 r2538 121396c
    Encoding settings : cabac=1 / ref=5 / deblock=1:-3:-3 / analyse=0x3:0x133 / me=tesa / subme=11 / psy=1 / psy_rd=1.04:0.00 / mixed_ref=1 / me_range=32 / chroma_me=1 / trellis=2 / 8x8dct=1 / cqm=0 / deadzone=21,11 / fast_pskip=0 / chroma_qp_offset=-2 / threads=60 / lookahead_threads=6 / sliced_threads=0 / nr=0 / decimate=0 / interlaced=0 / bluray_compat=0 / constrained_intra=0 / bframes=9 / b_pyramid=2 / b_adapt=2 / b_bias=0 / direct=3 / weightb=1 / open_gop=0 / weightp=2 / keyint=240 / keyint_min=23 / scenecut=40 / intra_refresh=0 / rc_lookahead=150 / rc=crf / mbtree=0 / crf=17.5 / qcomp=0.60 / qpmin=0 / qpmax=69 / qpstep=4 / vbv_maxrate=62500 / vbv_bufsize=78125 / crf_max=0.0 / nal_hrd=none / filler=0 / ip_ratio=1.40 / pb_ratio=1.30 / aq=1:0.80 / zones=150488,161300,b=0.2
    Language : English
    Default : Yes
    Forced : No
    Color range : Limited
    Matrix coefficients : BT.709

    Audio #1
    ID : 2
    Format : AC-3
    Format/Info : Audio Coding 3
    Mode extension : CM (complete main)
    Format settings, Endianness : Big
    Codec ID : A_AC3
    Duration : 1 h 52 min
    Bit rate mode : Constant
    Bit rate : 640 kb/s
    Channel(s) : 6 channels
    Channel positions : Front: L C R, Side: L R, LFE
    Sampling rate : 48.0 kHz
    Frame rate : 31.250 FPS (1536 spf)
    Compression mode : Lossy
    Stream size : 513 MiB (4%)
    Title : DUB [License]
    Language : Russian
    Default : Yes
    Forced : No

    Audio #2
    ID : 3
    Format : AC-3
    Format/Info : Audio Coding 3
    Mode extension : CM (complete main)
    Format settings, Endianness : Big
    Codec ID : A_AC3
    Duration : 1 h 52 min
    Bit rate mode : Constant
    Bit rate : 640 kb/s
    Channel(s) : 6 channels
    Channel positions : Front: L C R, Side: L R, LFE
    Sampling rate : 48.0 kHz
    Frame rate : 31.250 FPS (1536 spf)
    Compression mode : Lossy
    Stream size : 513 MiB (4%)
    Title : Original
    Language : English
    Default : No
    Forced : No

    Text #1
    ID : 4
    Format : UTF-8
    Codec ID : S_TEXT/UTF8
    Codec ID/Info : UTF-8 Plain Text
    Duration : 1 h 41 min
    Bit rate : 0 b/s
    Count of elements : 11
    Stream size : 371 Bytes (0%)
    Title : Forced
    Language : Russian
    Default : Yes
    Forced : No

    Text #2
    ID : 5
    Format : UTF-8
    Codec ID : S_TEXT/UTF8
    Codec ID/Info : UTF-8 Plain Text
    Duration : 1 h 43 min
    Bit rate : 95 b/s
    Count of elements : 1371
    Stream size : 72.5 KiB (0%)
    Title : Full
    Language : Russian
    Default : No
    Forced : No

    Text #3
    ID : 6
    Format : UTF-8
    Codec ID : S_TEXT/UTF8
    Codec ID/Info : UTF-8 Plain Text
    Duration : 1 h 42 min
    Bit rate : 65 b/s
    Count of elements : 1508
    Stream size : 49.4 KiB (0%)
    Title : Full
    Language : English
    Default : No
    Forced : No

    Text #4
    ID : 7
    Format : UTF-8
    Codec ID : S_TEXT/UTF8
    Codec ID/Info : UTF-8 Plain Text
    Duration : 1 h 43 min
    Bit rate : 74 b/s
    Count of elements : 1879
    Stream size : 56.7 KiB (0%)
    Title : SDH
    Language : English
    Default : No
    Forced : No

    Menu
    00:00:00.000 : en:00:00:00.000
    00:05:55.564 : en:00:05:55.564
    00:12:18.571 : en:00:12:18.571
    00:18:53.507 : en:00:18:53.507
    00:26:38.096 : en:00:26:38.096
    00:33:14.492 : en:00:33:14.492
    00:38:56.459 : en:00:38:56.459
    00:44:11.190 : en:00:44:11.190
    00:49:40.311 : en:00:49:40.311
    00:55:40.629 : en:00:55:40.629
    01:02:01.259 : en:01:02:01.259
    01:04:51.971 : en:01:04:51.971
    01:14:32.760 : en:01:14:32.760
    01:21:18.415 : en:01:21:18.415
    01:28:10.160 : en:01:28:10.160
    01:36:58.229 : en:01:36:58.229
    01:41:52.023 : en:01:41:52.023
    01:46:20.874 : en:01:46:20.874
8.0 из 10
голосов: 10
/10
/10
Похожие торренты Размер
  VA - Balkan Connection (2015) МР3
DENZEL519 10-09-2016, 07:57

DENZEL519 | 8-09-2016, 10:44 | Статус: Оффлайн

Ссылка на скачивание если раздачу закроют http://freerutor.com/engine/download.php?id=192798
Информация
Посетители, находящиеся в группе Гости, не могут оставлять комментарии к данной публикации.