Панель пользователя
Регистрация

Воспользуйтесь социальными сетями для входа на https://freerutor.com

vk odnoklassniki facebook mailru yandex google
Популярное
Счетчик
Голосуй за нас
VIP на сайте
Популярное
Товары интернет магазина
загрузка...

Отмель (2016) BDRip 1080p | Лицензия

Отмель (2016) BDRip 1080p | Лицензия
Участники торрент обмена
Сидов Пиров Скачали
27 11 148
Характеристика
Размер Файлы
11.86 GB
Релиз группа
Поделиться раздачей
Фильмы (720,1080,Blu-Ray)
Наименование: Отмель
Оригинальное наименование: The Shallows
Категория: Ужасы, триллер, драма
Произведено: США, Lola Visual Effects, MELS, Notorious VFX
Режиссер постановщик: Лоран Тирар
В главных ролях: Блэйк Лайвли, Оскар Хаэнада, Бретт Каллен, Седона Ледже
Краткое описание: Бескрайний океан, безлюдный пляж и идеальная погода для серфингистов в поисках хорошей волны. Казалось бы, ничто не предвещает беды для очаровательной любительницы серфинга в одиночку. Разве что свидание тет-а-тет с гигантской акулой, которая загонит спортсменку на песчаную отмель и не отступит до тех пор, пока не получит своё.
  • Видео данные: MPEG-4 AVC, 17400 kb/s, 1920x802
    Аудио данные: Russian: AC3, 640 kb/s (6 ch) / English DTS, 1510 kb/s (6 ch) / Ukrainian AAC, 128 kb/s (2 ch)
    Перевод: Дублированный (Лицензия)
    Продолжительность: 01:26:16
    Субтитры: Russian (Forced, iTunes), Russian (iTunes), Ukrainian (Forced, iTunes), Ukrainian (iTunes), English (Forced, iTunes), English (iTunes), English, English (SDH)
  • Отмель (2016) BDRip 1080p | Лицензия Отмель (2016) BDRip 1080p | Лицензия Отмель (2016) BDRip 1080p | Лицензия
  • General
    Unique ID : 234093050153805932211970060977178016010 (0xB01CAE773457D20389048E679615F90A)
    Complete name : /etc/seedbox/home/karta/data/Загрузки/freerutor/The.Shallows.2016.1080p.BluRay.Rus.Ukr.Eng.HDCLUB.mkv
    Format : Matroska
    Format version : Version 2
    File size : 11.9 GiB
    Duration : 1h 26mn
    Overall bit rate : 19.7 Mbps
    Movie name : The Shallows (2016) - Release for HDCLUB
    Encoded date : UTC 2016-12-05 20:42:43
    Writing application : mkvmerge v3.4.0 ('Rapunzel') built on May 15 2010 09:38:20
    Writing library : libebml v0.8.0 + libmatroska v0.9.0

    Video
    ID : 1
    Format : AVC
    Format/Info : Advanced Video Codec
    Format profile : High@L4.1
    Format settings, CABAC : Yes
    Format settings, ReFrames : 5 frames
    Codec ID : V_MPEG4/ISO/AVC
    Duration : 1h 26mn
    Nominal bit rate : 17.4 Mbps
    Width : 1 920 pixels
    Height : 802 pixels
    Display aspect ratio : 2.40:1
    Frame rate mode : Constant
    Frame rate : 23.976 fps
    Color space : YUV
    Chroma subsampling : 4:2:0
    Bit depth : 8 bits
    Scan type : Progressive
    Bits/(Pixel*Frame) : 0.471
    Title : The Shallows (2016) - Release for HDCLUB
    Writing library : x264 core 148 r2705kMod 3f5ed56
    Encoding settings : cabac=1 / ref=5 / deblock=1:-2:-2 / analyse=0x3:0x133 / me=umh / subme=11 / psy=1 / fade_compensate=0.00 / psy_rd=1.00:0.00 / mixed_ref=1 / me_range=32 / chroma_me=1 / trellis=2 / 8x8dct=1 / cqm=0 / deadzone=21,11 / fast_pskip=0 / chroma_qp_offset=-2 / threads=12 / lookahead_threads=3 / sliced_threads=0 / nr=0 / decimate=1 / interlaced=0 / bluray_compat=0 / constrained_intra=0 / fgo=0 / bframes=10 / b_pyramid=2 / b_adapt=2 / b_bias=0 / direct=3 / weightb=1 / open_gop=0 / weightp=2 / keyint=250 / keyint_min=23 / scenecut=40 / intra_refresh=0 / rc_lookahead=60 / rc=2pass / mbtree=0 / bitrate=17400 / ratetol=1.0 / qcomp=0.60 / qpmin=0 / qpmax=69 / qpstep=4 / cplxblur=20.0 / qblur=0.5 / vbv_maxrate=62500 / vbv_bufsize=78125 / nal_hrd=none / filler=0 / ip_ratio=1.40 / pb_ratio=1.30 / aq=1:0.80
    Language : English
    Default : Yes
    Forced : No
    Color range : Limited
    Color primaries : BT.709
    Transfer characteristics : BT.709
    Matrix coefficients : BT.709

    Audio #1
    ID : 2
    Format : AC-3
    Format/Info : Audio Coding 3
    Mode extension : CM (complete main)
    Format settings, Endianness : Big
    Codec ID : A_AC3
    Duration : 1h 26mn
    Bit rate mode : Constant
    Bit rate : 640 Kbps
    Channel(s) : 6 channels
    Channel positions : Front: L C R, Side: L R, LFE
    Sampling rate : 48.0 KHz
    Bit depth : 16 bits
    Compression mode : Lossy
    Stream size : 395 MiB (3%)
    Title : AC3 5.1 @ 640 kbps - DUB, Blu-ray EUR
    Language : Russian
    Default : Yes
    Forced : No

    Audio #2
    ID : 3
    Format : AAC
    Format/Info : Advanced Audio Codec
    Format profile : HE-AAC / LC
    Codec ID : A_AAC
    Duration : 1h 26mn
    Channel(s) : 2 channels
    Channel positions : Front: L R
    Sampling rate : 88.2 KHz / 44.1 KHz
    Compression mode : Lossy
    Title : AAC 2.0 @ 128 kbps - DUB, iTunes
    Language : Ukrainian
    Default : No
    Forced : No

    Audio #3
    ID : 4
    Format : DTS
    Format/Info : Digital Theater Systems
    Mode : 16
    Format settings, Endianness : Big
    Codec ID : A_DTS
    Duration : 1h 26mn
    Bit rate mode : Constant
    Bit rate : 1 509 Kbps
    Channel(s) : 6 channels
    Channel positions : Front: L C R, Side: L R, LFE
    Sampling rate : 48.0 KHz
    Bit depth : 24 bits
    Compression mode : Lossy
    Delay relative to video : 11ms
    Stream size : 931 MiB (8%)
    Title : DTS 5.1 @ 1536 kbps
    Language : English
    Default : No
    Forced : No

    Text #1
    ID : 5
    Format : UTF-8
    Codec ID : S_TEXT/UTF8
    Codec ID/Info : UTF-8 Plain Text
    Title : Forced, iTunes
    Language : Russian
    Default : Yes
    Forced : No

    Text #2
    ID : 6
    Format : UTF-8
    Codec ID : S_TEXT/UTF8
    Codec ID/Info : UTF-8 Plain Text
    Title : iTunes
    Language : Russian
    Default : No
    Forced : No

    Text #3
    ID : 7
    Format : UTF-8
    Codec ID : S_TEXT/UTF8
    Codec ID/Info : UTF-8 Plain Text
    Title : Forced, iTunes
    Language : English
    Default : No
    Forced : No

    Text #4
    ID : 8
    Format : UTF-8
    Codec ID : S_TEXT/UTF8
    Codec ID/Info : UTF-8 Plain Text
    Title : iTunes
    Language : English
    Default : No
    Forced : No

    Text #5
    ID : 9
    Format : UTF-8
    Codec ID : S_TEXT/UTF8
    Codec ID/Info : UTF-8 Plain Text
    Language : English
    Default : No
    Forced : No

    Text #6
    ID : 10
    Format : UTF-8
    Codec ID : S_TEXT/UTF8
    Codec ID/Info : UTF-8 Plain Text
    Title : SDH
    Language : English
    Default : No
    Forced : No

    Menu
    00:00:00.000 : en:Chapter 1
    00:08:09.697 : en:Chapter 2
    00:15:10.409 : en:Chapter 3
    00:20:31.939 : en:Chapter 4
    00:25:45.877 : en:Chapter 5
    00:30:07.055 : en:Chapter 6
    00:36:04.120 : en:Chapter 7
    00:40:39.687 : en:Chapter 8
    00:45:41.613 : en:Chapter 9
    00:49:32.219 : en:Chapter 10
    00:55:57.979 : en:Chapter 11
    01:01:21.511 : en:Chapter 12
    01:06:22.561 : en:Chapter 13
    01:09:57.443 : en:Chapter 14
    01:13:38.705 : en:Chapter 15
    01:19:01.486 : en:Chapter 16
8.5 из 10
голосов: 15
/10
/10
bond74 Вчера, 01:18

karta | Вчера, 01:18 | Статус: Онлайн

Информация
Посетители, находящиеся в группе Гости, не могут оставлять комментарии к данной публикации.