Панель пользователя
Регистрация

Воспользуйтесь социальными сетями для входа на https://freerutor.com

vk odnoklassniki facebook mailru yandex google
Популярное
Счетчик
Голосуй за нас
VIP на сайте
Популярное
Товары интернет магазина
загрузка...

Такой же предатель, как и мы (2016) BDRip 720p | iTunes

Такой же предатель, как и мы (2016) BDRip 720p | iTunes
Участники торрент обмена
Сидов Пиров Скачали
9 0 2095
Характеристика
Размер Файлы
5.38 GB
Релиз группа
Поделиться раздачей
Фильмы (720,1080,Blu-Ray)
Наименование: Такой же предатель, как и мы
Оригинальное наименование: Our Kind of Traitor
Произведено: Великобритания, Франция
Категория: триллер
Режиссер постановщик: Сюзанна Уайт
В главных ролях: Карлос Акоста, Радивойе Буквич, Стеллан Скарсгард, Мария Фомина, Доля Гавански, Григорий Добрыгин, Велибор Топич, Павел Жайда, Юэн МакГрегор, Наоми Харрис
Краткое описание: Молодая английская пара, отдыхая в Марокко, заводит знакомство с русским олигархом, отмывающим деньги для преступных группировок, чьи лидеры вот-вот спишут его со счетов. Чтобы спасти себя и семью, он предлагает разведке Великобритании море ценных сведений в обмен на защиту и покровительство. Его последняя отчаянная надежда - на «английских джентльменов», которые всегда «играют честно»...
  • Видео данные: MPEG-4 AVC, 5900 Кбит/с, 1280x536
    Аудио данные: Русский (AC3, 6 ch, 384 Кбит/с), английский (DTS, 6 ch, 1510 Кбит/с)
    Перевод: профессиональный многоголосый (iTunes)
    Субтитры: Английские
    Продолжительность: 01:47:27
  • Такой же предатель, как и мы (2016) BDRip 720p | iTunes Такой же предатель, как и мы (2016) BDRip 720p | iTunes Такой же предатель, как и мы (2016) BDRip 720p | iTunes
  • Общее
    Уникальный идентификатор : 220014027730699974272558833533923188821 (0xA58529113B3B38DBAFF2A45F30116055)
    Полное имя : G:VideoOur.Kind.of.Traitor.2016.BDRip.720p.ExKinoRay.mkv
    Формат : Matroska
    Версия формата : Version 4 / Version 2
    Размер файла : 5,38 Гбайт
    Продолжительность : 1 ч. 47 м.
    Общий поток : 7154 Кбит/сек
    Название фильма : ***селезень***
    Дата кодирования : UTC 2016-09-15 09:40:19
    Программа кодирования : mkvmerge v8.3.0 ('Over the Horizon') 64bit
    Библиотека кодирования : libebml v1.3.1 + libmatroska v1.4.2

    Видео
    Идентификатор : 1
    Формат : AVC
    Формат/Информация : Advanced Video Codec
    Профиль формата : High@L4.1
    Параметр CABAC формата : Да
    Параметр ReFrames формата : 12 кадров
    Идентификатор кодека : V_MPEG4/ISO/AVC
    Продолжительность : 1 ч. 47 м.
    Битрейт : 6000 Кбит/сек
    Ширина : 1280 пикселей
    Высота : 536 пикселей
    Соотношение сторон : 2,40:1
    Режим частоты кадров : Постоянный
    Частота кадров : 24,000 кадра/сек
    Цветовое пространство : YUV
    Субдискретизация насыщенности : 4:2:0
    Битовая глубина : 8 бит
    Тип развёртки : Прогрессивная
    Бит/(Пиксели*Кадры) : 0.364
    Размер потока : 4,51 Гбайт (84%)
    Заголовок : ***селезень***
    Библиотека кодирования : x264 core 142 r2431+42 c69a006 tMod [8-bit@all X86_64]
    Настройки программы : cabac=1 / ref=12 / deblock=1:-3:-3 / analyse=0x3:0x113 / me=umh / subme=10 / psy=1 / fade_compensate=0.00 / psy_rd=1.05:1.05 / mixed_ref=1 / me_range=36 / chroma_me=1 / trellis=2 / 8x8dct=1 / cqm=0 / deadzone=21,11 / fast_pskip=0 / chroma_qp_offset=-4 / threads=16 / lookahead_threads=1 / sliced_threads=0 / nr=0 / decimate=0 / interlaced=0 / bluray_compat=0 / constrained_intra=0 / fgo=0 / bframes=8 / b_pyramid=2 / b_adapt=1 / b_bias=0 / direct=3 / weightb=1 / open_gop=0 / weightp=2 / keyint=240 / keyint_min=24 / scenecut=40 / intra_refresh=0 / rc_lookahead=100 / rc=2pass / mbtree=0 / bitrate=6000 / ratetol=1.0 / qcomp=0.90 / qpmin=0:0:0 / qpmax=69:69:69 / qpstep=4 / cplxblur=20.0 / qblur=0.5 / vbv_maxrate=62500 / vbv_bufsize=78125 / nal_hrd=none / filler=0 / ip_ratio=1.40 / pb_ratio=1.30 / aq=2:0.80 / aq-sensitivity=10.00 / aq-factor=1.00:1.00:1.00 / aq2=0 / aq3=0
    Язык : English
    Default : Да
    Forced : Нет
    Цветовой диапазон : Limited
    Основные цвета : BT.709
    Характеристики трансфера : BT.709
    Коэффициенты матрицы : BT.709

    Аудио #1
    Идентификатор : 2
    Формат : AC-3
    Формат/Информация : Audio Coding 3
    Расширение режима : CM (complete main)
    Параметр Endianness формата : Big
    Идентификатор кодека : A_AC3
    Продолжительность : 1 ч. 47 м.
    Вид битрейта : Постоянный
    Битрейт : 384 Кбит/сек
    Каналы : 6 каналов
    Расположение каналов : Front: L C R, Side: L R, LFE
    Частота : 48,0 КГц
    Частота кадров : 31,250 кадров/сек (1536 spf)
    Метод сжатия : С потерями
    Задержка видео : 1 с. 504 мс.
    Размер потока : 295 Мбайт (5%)
    Заголовок : iTunes
    Язык : Russian
    Default : Да
    Forced : Нет

    Аудио #2
    Идентификатор : 3
    Формат : DTS
    Формат/Информация : Digital Theater Systems
    Режим : 16
    Параметр Endianness формата : Big
    Идентификатор кодека : A_DTS
    Продолжительность : 1 ч. 47 м.
    Вид битрейта : Постоянный
    Битрейт : 768 Кбит/сек
    Каналы : 6 каналов
    Расположение каналов : Front: L C R, Side: L R, LFE
    Частота : 48,0 КГц
    Частота кадров : 93,750 кадра/сек (512 spf)
    Битовая глубина : 24 бит
    Метод сжатия : С потерями
    Размер потока : 591 Мбайт (11%)
    Заголовок : Original
    Язык : English
    Default : Нет
    Forced : Нет

    Текст
    Идентификатор : 4
    Формат : UTF-8
    Идентификатор кодека : S_TEXT/UTF8
    Идентификатор кодека/Информация : UTF-8 Plain Text
    Продолжительность : 1 ч. 40 м.
    Битрейт : 52 бит/сек
    Count of elements : 1264
    Размер потока : 38,6 Кбайт (0%)
    Заголовок : SDH
    Язык : English
    Default : Нет
    Forced : Нет

    Меню
    00:00:00.000 : en:00:00:00.000
    00:07:50.917 : en:00:07:50.917
    00:15:23.208 : en:00:15:23.208
    00:24:40.625 : en:00:24:40.625
    00:38:49.833 : en:00:38:49.833
    00:43:41.792 : en:00:43:41.792
    00:58:08.958 : en:00:58:08.958
    01:07:19.333 : en:01:07:19.333
    01:13:50.417 : en:01:13:50.417
    01:17:30.167 : en:01:17:30.167
    01:35:39.292 : en:01:35:39.292
    01:41:33.542 : en:01:41:33.542
4.1 из 10
голосов: 7
/10
/10
Раздачу отредактировал: grab777 - 15-09-2016, 13:32
По причине: (Замена Чистый звук на iTunes)
foster720p 15-09-2016, 13:32
Информация
Посетители, находящиеся в группе Гости, не могут оставлять комментарии к данной публикации.