Панель пользователя
Регистрация

Воспользуйтесь социальными сетями для входа на https://freerutor.com

vk odnoklassniki facebook mailru yandex google
Популярное
Счетчик
Голосуй за нас
VIP на сайте
Популярное
Товары интернет магазина
загрузка...

Вий (1967) BDRip 720p | JPN Transfer

Вий (1967) BDRip 720p | JPN Transfer
Участники торрент обмена
Сидов Пиров Скачали
2 0 164
Характеристика
Размер Файлы
4.86 GB
Релиз группа
Поделиться раздачей
Фильмы (720,1080,Blu-Ray)
Наименование: Вий
Категория: ужасы, фэнтези, драма
Произведено: СССР, Луч, Мосфильм
Режиссер: Георгий Кропачев, Константин Ершов
В главных ролях: Леонид Куравлёв, Наталья Варлей, Алексей Глазырин, Николай Кутузов, Вадим Захарченко, Петр Вескляров, Владимир Сальников, Дмитрий Капка, Степан Шкурат, Георгий Сочевко
Краткое описание: Студент-философ Хома Брут должен провести несколько ночей у гроба умершей панночки в старой церквушке в далекой деревне. Сможет ли он побороть свой страх, или ему придется столкнуться с нечистой силой?..
  • Видео данные: 976x720 at 23.976 fps, x264@L4.1, ~8272 kbps avg
    Аудио данные1: Russian: 48 kHz, FLAC, 2/0 (L,R) ch, ~330 kbps avg
    Аудио данные2: Russian: 48 kHz, AC3, 2/0 (L,R) ch, ~448 kbps avg
    Перевод: Оригинал
    Продолжительность: 01:16:51
  • Вий (1967) BDRip 720p | JPN Transfer Вий (1967) BDRip 720p | JPN Transfer Вий (1967) BDRip 720p | JPN Transfer
  • Format : Matroska
    Format version : Version 4 / Version 2
    File size : 4.86 GiB
    Duration : 1 h 16 min
    Overall bit rate mode : Variable
    Overall bit rate : 9 052 kb/s
    Encoded date : UTC 2016-09-03 06:14:31
    Writing application : mkvmerge v8.3.0 ('Over the Horizon') 64bit
    Writing library : libebml v1.3.1 + libmatroska v1.4.2
    Cover : Yes
    Attachments : cover.jpg

    Video
    ID : 1
    Format : AVC
    Format/Info : Advanced Video Codec
    Format profile : High@L4.1
    Format settings, CABAC : Yes
    Format settings, ReFrames : 11 frames
    Codec ID : V_MPEG4/ISO/AVC
    Duration : 1 h 16 min
    Bit rate : 8 272 kb/s
    Width : 976 pixels
    Height : 720 pixels
    Display aspect ratio : 4:3
    Frame rate mode : Constant
    Frame rate : 23.976 (24000/1001) FPS
    Color space : YUV
    Chroma subsampling : 4:2:0
    Bit depth : 8 bits
    Scan type : Progressive
    Bits/(Pixel*Frame) : 0.491
    Stream size : 4.44 GiB (91%)
    Writing library : x264 core 148 r2705+54 9f484c1 t_mod_Custom [8-bit@all X86_64]
    Encoding settings : cabac=1 / ref=11 / deblock=1:-3:-3 / analyse=0x3:0x133 / me=umh / subme=10 / psy=1 / fade_compensate=0.00 / psy_rd=1.00:0.05 / mixed_ref=1 / me_range=32 / chroma_me=1 / trellis=2 / 8x8dct=1 / cqm=0 / deadzone=21,11 / fast_pskip=0 / chroma_qp_offset=-3 / threads=6 / lookahead_threads=1 / sliced_threads=0 / nr=0 / decimate=1 / interlaced=0 / bluray_compat=0 / constrained_intra=0 / fgo=0 / bframes=10 / b_pyramid=2 / b_adapt=2 / b_bias=0 / direct=3 / weightb=1 / open_gop=0 / weightp=2 / keyint=250 / keyint_min=23 / scenecut=40 / intra_refresh=0 / rc_lookahead=60 / rc=crf / mbtree=0 / crf=17.0000 / qcomp=0.65 / qpmin=0:0:0 / qpmax=69:69:69 / qpstep=4 / vbv_maxrate=62500 / vbv_bufsize=78125 / crf_max=0.0 / nal_hrd=none / filler=0 / ip_ratio=1.30 / pb_ratio=1.20 / aq=1:0.65 / aq-sensitivity=10.00 / aq-factor=1.00:1.00:1.00 / aq2=1:0.50 / aq2-sensitivity=15.00 / aq2-factor=1.00:1.00:1.00 / aq3=1:[0.45:0.45]:[0.45:0.45]:[0.45:0.45]:[0.45:0.45] / aq3-sensitivity=10.00 / aq3-factor=[1.00:1.00]:[1.00:1.00]:[1.00:1.00] / aq3-boundary=192:64:24
    Language : English
    Default : Yes
    Forced : No
    Color range : Limited
    Color primaries : BT.709
    Transfer characteristics : BT.709
    Matrix coefficients : BT.709

    Audio #1
    ID : 2
    Format : FLAC
    Format/Info : Free Lossless Audio Codec
    Codec ID : A_FLAC
    Duration : 1 h 16 min
    Bit rate mode : Variable
    Bit rate : 330 kb/s
    Channel(s) : 2 channels
    Channel positions : Front: L R
    Sampling rate : 48.0 kHz
    Frame rate : 11.719 FPS (4096 spf)
    Bit depth : 16 bits
    Stream size : 181 MiB (4%)
    Title : 330 kb/s
    Writing library : libFLAC 1.2.1 (UTC 2007-09-17)
    Language : Russian
    Default : Yes
    Forced : No

    Audio #2
    ID : 3
    Format : AC-3
    Format/Info : Audio Coding 3
    Mode extension : CM (complete main)
    Format settings, Endianness : Big
    Codec ID : A_AC3
    Duration : 1 h 16 min
    Bit rate mode : Constant
    Bit rate : 448 kb/s
    Channel(s) : 2 channels
    Channel positions : Front: L R
    Sampling rate : 48.0 kHz
    Frame rate : 31.250 FPS (1536 spf)
    Compression mode : Lossy
    Stream size : 246 MiB (5%)
    Title : 448 kb/s
    Language : Russian
    Default : No
    Forced : No

    Menu
    00:00:00.000 : en:00:00:00.000
    00:10:03.978 : en:00:10:03.978
    00:21:28.996 : en:00:21:28.996
    00:26:57.366 : en:00:26:57.366
    00:37:36.254 : en:00:37:36.254
    00:45:53.084 : en:00:45:53.084
    00:55:23.403 : en:00:55:23.403
    01:05:14.828 : en:01:05:14.828
10.0 из 10
голосов: 4
/10
/10
Раздачу отредактировал: 616759 - 3-09-2016, 18:28
616759 3-09-2016, 15:45
Информация
Посетители, находящиеся в группе Гости, не могут оставлять комментарии к данной публикации.