Панель пользователя
Регистрация

Воспользуйтесь социальными сетями для входа на https://freerutor.com

vk odnoklassniki facebook mailru yandex google
Популярное
Счетчик
Голосуй за нас
VIP на сайте
Популярное
Товары интернет магазина
загрузка...

Первый мститель: Противостояние (2016) BDRip-AVC | FocusStudio

Первый мститель: Противостояние (2016) BDRip-AVC | FocusStudio
Участники торрент обмена
Сидов Пиров Скачали
28 1 1933
Характеристика
Размер Файлы
2.99 GB
Релиз группа
Поделиться раздачей
Фильмы (AVC)
Наименование: Первый мститель: Противостояние
Оригинальное наименование: Captain America: Civil War
Категория: фантастика, боевик, приключения
Произведено: США
Режиссер постановщик: Энтони Руссо, Джо Руссо
В главных ролях: Крис Эванс , Роберт Дауни мл. , Скарлетт Йоханссон , Себастьян Стэн , Энтони Маки , Дон Чидл , Джереми Реннер , Чедвик Боузман , Пол Беттани , Элизабет Олсен , Пол Радд , Эмили ВанКэмп
Краткое описание: Мстители под руководством Капитана Америки оказываются участниками разрушительного инцидента, имеющего международный масштаб. Эти события заставляют правительство задуматься над тем, чтобы начать регулировать действия всех людей с особыми способностями, введя «Акт о регистрации супергероев», вынуждая их подчиняться ООН.
  • Видео данные: MPEG-4 AVC, 1996 Кбит/с, 1024x428
    Аудио данные: Русский (AC3, 6 ch, 448 Кбит/с), английский (АС3, 6 ch, 448 Кбит/с)
    Перевод: Профессиональный многоголосый (закадровый) | FocusStudio
    Продолжительность: 02:27:41
    Субтитры: Русские (полные, форсированные), английские (full, SDH)
  • Первый мститель: Противостояние (2016) BDRip-AVC | FocusStudio Первый мститель: Противостояние (2016) BDRip-AVC | FocusStudio Первый мститель: Противостояние (2016) BDRip-AVC | FocusStudio
  • General
    Unique ID : 251288258440829426971612929299533942346 (0xBD0C5BB06694CFFE8EFEE2D94EB24E4A)
    Название : D:\download\Captain.America.Civil.War.2016.BDRip-AVC by schultz R.G.Resident..mkv
    Формат : Matroska
    Формат version : Version 4 / Version 2
    Размер файла : 2.99 GiB
    Длительность : 2 h 27 min
    Общий Битрейт : 2 894 kb/s
    Encoded date : UTC 2016-09-03 07:01:49
    Создано приложением : mkvmerge v8.9.0 ('Father Daughter') 64bit
    Writing library : libebml v1.3.3 + libmatroska v1.4.4

    Video
    ID : 1
    Формат : AVC
    Формат/Info : Advanced Video Кодек
    Формат profile : High@L4.1
    Формат настройки, CABAC : Yes
    Формат настройки, ReFrames : 11 frames
    Кодек ID : V_MPEG4/ISO/AVC
    Длительность : 2 h 27 min
    Битрейт : 1 996 kb/s
    Width : 1 024 пикселей
    Высота : 428 пикселей
    Соотношение кадра : 2.40:1
    Частота кадров mode : Constant
    Частота кадров : 23.976 (23976/1000) FPS
    Цветопередача : YUV
    Chroma subsampling : 4:2:0
    Разрядность : 8 bits
    Тип сканирования : Progressive
    Bits/(Pixel*Frame) : 0.190
    Размер потока : 2.06 GiB (69%)
    Writing library : x264 core 146 r2538 121396c
    Encoding настройки : cabac=1 / ref=11 / deblock=1:-3:-3 / analyse=0x3:0x113 / me=umh / subme=11 / psy=1 / psy_rd=1.00:0.00 / mixed_ref=1 / me_range=48 / chroma_me=1 / trellis=2 / 8x8dct=1 / cqm=0 / deadzone=21,11 / fast_pskip=0 / chroma_qp_offset=-2 / threads=12 / lookahead_threads=3 / sliced_threads=0 / nr=0 / decimate=0 / interlaced=0 / bluray_compat=0 / constrained_intra=0 / bframes=12 / b_pyramid=2 / b_adapt=2 / b_bias=0 / direct=3 / weightb=1 / open_gop=0 / weightp=2 / keyint=240 / keyint_min=23 / scenecut=40 / intra_refresh=0 / rc_lookahead=40 / rc=2pass / mbtree=1 / bitrate=1996 / ratetol=1.0 / qcomp=0.60 / qpmin=0 / qpmax=69 / qpstep=4 / cplxblur=20.0 / qblur=0.5 / vbv_maxrate=14000 / vbv_bufsize=14000 / nal_hrd=none / filler=0 / ip_ratio=1.40 / aq=1:1.00
    Язык : English
    Default : Yes
    Forced : No

    Audio #1
    ID : 2
    Формат : AC-3
    Формат/Info : Audio Coding 3
    Расширение режима : CM (complete main)
    Формат настройки, Endianness : Big
    Кодек ID : A_AC3
    Длительность : 2 h 27 min
    Битрейт mode : Constant
    Битрейт : 448 kb/s
    Channel(s) : 6 каналов
    Channel positions : Front: L C R, Side: L R, LFE
    Частота : 48.0 kHz
    Частота кадров : 31.250 FPS (1536 spf)
    Режим сжатия : Lossy
    Размер потока : 473 MiB (15%)
    Язык : Russian
    Default : Yes
    Forced : No

    Audio #2
    ID : 3
    Формат : AC-3
    Формат/Info : Audio Coding 3
    Расширение режима : CM (complete main)
    Формат настройки, Endianness : Big
    Кодек ID : A_AC3
    Длительность : 2 h 27 min
    Битрейт mode : Constant
    Битрейт : 448 kb/s
    Channel(s) : 6 каналов
    Channel positions : Front: L C R, Side: L R, LFE
    Частота : 48.0 kHz
    Частота кадров : 31.250 FPS (1536 spf)
    Режим сжатия : Lossy
    Размер потока : 473 MiB (15%)
    Язык : English
    Default : No
    Forced : No

    Text #1
    ID : 4
    Формат : UTF-8
    Кодек ID : S_TEXT/UTF8
    Кодек ID/Info : UTF-8 Plain Text
    Длительность : 1 h 44 min
    Битрейт : 2 b/s
    Count of elements : 59
    Размер потока : 1.91 KiB (0%)
    Title : Forced
    Язык : Russian
    Default : Yes
    Forced : No

    Text #2
    ID : 5
    Формат : UTF-8
    Кодек ID : S_TEXT/UTF8
    Кодек ID/Info : UTF-8 Plain Text
    Длительность : 2 h 25 min
    Битрейт : 74 b/s
    Count of elements : 1722
    Размер потока : 80.1 KiB (0%)
    Title : Full
    Язык : Russian
    Default : No
    Forced : No

    Text #3
    ID : 6
    Формат : UTF-8
    Кодек ID : S_TEXT/UTF8
    Кодек ID/Info : UTF-8 Plain Text
    Длительность : 2 h 25 min
    Битрейт : 50 b/s
    Count of elements : 1865
    Размер потока : 54.2 KiB (0%)
    Title : Full
    Язык : English
    Default : No
    Forced : No

    Text #4
    ID : 7
    Формат : UTF-8
    Кодек ID : S_TEXT/UTF8
    Кодек ID/Info : UTF-8 Plain Text
    Длительность : 2 h 26 min
    Битрейт : 55 b/s
    Count of elements : 2105
    Размер потока : 59.1 KiB (0%)
    Title : SDH
    Язык : English
    Default : No
    Forced : No

    Menu
    00:00:00.000 : en:Chapter 1
    00:09:01.958 : en:Chapter 2
    00:13:04.993 : en:Chapter 3
    00:21:03.345 : en:Chapter 4
    00:27:53.380 : en:Chapter 5
    00:31:57.290 : en:Chapter 6
    00:35:08.398 : en:Chapter 7
    00:42:58.451 : en:Chapter 8
    00:52:04.621 : en:Chapter 9
    01:05:39.102 : en:Chapter 10
    01:16:41.639 : en:Chapter 11
    01:22:28.777 : en:Chapter 12
    01:29:29.489 : en:Chapter 13
    01:34:09.769 : en:Chapter 14
    01:45:38.582 : en:Chapter 15
    01:55:54.322 : en:Chapter 16
    02:02:35.056 : en:Chapter 17
    02:12:14.176 : en:Chapter 18
    02:18:29.384 : en:Chapter 19
7.8 из 10
голосов: 9
/10
/10
schultz 3-09-2016, 10:19
Информация
Посетители, находящиеся в группе Гости, не могут оставлять комментарии к данной публикации.