Панель пользователя
Регистрация

Воспользуйтесь социальными сетями для входа на https://freerutor.com

vk odnoklassniki facebook mailru yandex google
Популярное
Счетчик
Голосуй за нас
VIP на сайте
Популярное
Товары интернет магазина
загрузка...

Тайная жизнь домашних животных (2016) HDTVRip | Чистый звук

Тайная жизнь домашних животных (2016) HDTVRip | Чистый звук
Участники торрент обмена
Сидов Пиров Скачали
228 4 42863
Характеристика
Размер Файлы
744.37 MB
Релиз группа
Поделиться раздачей
Мультфильмы
Наименование: Тайная жизнь домашних животных
Оригинальное наименование: The Secret Life of Pets
Категория: мультфильм, комедия, семейный
Произведено: Япония, США, Dentsu / Fuji Television Network Inc., Illumination Entertainment, Universal Pictures
Режиссер: Ярроу Чейни, Крис Рено
В ролях: Луис С.К., Эрик Стоунстрит, Кевин Харт, Дженни Слейт, Элли Кемпер, Альберт Брукс, Лэйк Белл, Дэна Карви, Хэннибал Бёресс, Бобби Мойнахан
Краткое описание: Что делают домашние животные пока хозяева пропадают на работе? С тоской смотрят в окно? Смиренно дремлют на коврике у двери? Как бы не так. Они ведут свою тайную жизнь. Сюжет повествует о Кэти и её питомце псе Максе, который привык быть единственным любимцем своей хозяйки Кэтти. Живут они душа в душу, как лучшие друзья. Но, в один прекрасный момент идиллия прекращается, ведь в дом приводят нового питомца — Дюка. И Макс начинает недолюбливать соседа, еще бы, ведь Дюк забирает внимание хозяйки на себя, да что он вообще себе позволяет? Макс решает проучить Дюка, и избавится от него, чтобы любовь Кэтти вновь доставалась лишь ему одному, в результате чего оба оказываются далеко от дома и теперь им придется как-то взаимодействовать друг с другом, чтобы вместе найти дорогу домой...
  • Видео данные: XviD build 73, 656x352 (2.40:1), 23.970 fps, 1064 Kbps (0.154 bit/pixel)
    Аудио данные: 48.0 kHz, MP3, 2/0 ch, 128 kbps
    Перевод: Дублированный [Чистый звук]
    Продолжительность: 01:26:25
    Релиз без рекламы.
  • Тайная жизнь домашних животных (2016) HDTVRip | Чистый звук Тайная жизнь домашних животных (2016) HDTVRip | Чистый звук Тайная жизнь домашних животных (2016) HDTVRip | Чистый звук
  • General
    Complete name : Tajnaja.Zhizhj.Domashnih.Zhivotnyh.2016.XviD.745Gb.HDTVRip.by.GeneralFilm.avi
    Format : AVI
    Format/Info : Audio Video Interleave
    File size : 744 MiB
    Duration : 1h 26mn
    Overall bit rate : 1 204 Kbps
    Writing application : VirtualDubMod 1.5.10.3 | www.virtualdub-fr.org || (build 2550/release)
    Writing library : VirtualDubMod build 2550/release

    Video
    ID : 0
    Format : MPEG-4 Visual
    Format profile : Advanced Simple@L5
    Format settings, BVOP : 1
    Format settings, QPel : No
    Format settings, GMC : No warppoints
    Format settings, Matrix : Custom
    Codec ID : XVID
    Codec ID/Hint : XviD
    Duration : 1h 26mn
    Bit rate : 1 064 Kbps
    Width : 656 pixels
    Height : 352 pixels
    Display aspect ratio : 1.85:1
    Frame rate : 29.970 (29970/1000) fps
    Color space : YUV
    Chroma subsampling : 4:2:0
    Bit depth : 8 bits
    Scan type : Progressive
    Compression mode : Lossy
    Bits/(Pixel*Frame) : 0.154
    Stream size : 658 MiB (88%)
    Writing library : XviD 73

    Audio
    ID : 1
    Format : MPEG Audio
    Format version : Version 1
    Format profile : Layer 3
    Codec ID : 55
    Codec ID/Hint : MP3
    Duration : 1h 26mn
    Bit rate mode : Constant
    Bit rate : 128 Kbps
    Channel(s) : 2 channels
    Sampling rate : 48.0 KHz
    Compression mode : Lossy
    Stream size : 79.1 MiB (11%)
    Alignment : Aligned on interleaves
    Interleave, duration : 33 ms (1.00 video frame)
    Interleave, preload duratio : 504 ms
    Writing library : LAME3.99r
    Encoding settings : -m s -V 4 -q 0 -lowpass 17 -b 128
10.0 из 10
голосов: 1
/10
/10
616759 2-09-2016, 20:27
Информация
Посетители, находящиеся в группе Гости, не могут оставлять комментарии к данной публикации.