Панель пользователя
Регистрация

Воспользуйтесь социальными сетями для входа на https://freerutor.com

vk odnoklassniki facebook mailru yandex google
Популярное
Счетчик
Голосуй за нас
VIP на сайте
Популярное
Товары интернет магазина
загрузка...

Тайная жизнь домашних животных (2016) BDRip 1080p | Лицензия

Тайная жизнь домашних животных (2016)  BDRip 1080p | Лицензия
Участники торрент обмена
Сидов Пиров Скачали
58 23 328
Характеристика
Размер Файлы
5.75 GB
Релиз группа
Поделиться раздачей
Мультфильмы
Наименование: Тайная жизнь домашних животных
Оригинальное наименование: The Secret Life of Pets
Произведено: Япония, США
Категория: мультфильм, комедия, семейный
Режиссер постановщик: Ярроу Чейни, Крис Рено
В главных ролях: Луис С.К., Эрик Стоунстрит, Кевин Харт, Дженни Слейт, Элли Кемпер, Альберт Брукс, Лэйк Белл, Дэна Карви, Хэннибал Бёресс, Бобби Мойнахан
Краткое описание: Что делают домашние животные пока хозяева пропадают на работе? С тоской смотрят в окно? Смиренно дремлют на коврике у двери? Как бы не так. Они ведут свою тайную жизнь.
  • Видео: MPEG-4 AVC, 8240 kbps, 1920x1036
    Аудио: Русский, английский (AC3, 6 ch, 640 Кбит/с)
    Перевод: Дублированный [Лицензия]
    Субтитры: Русские (форсированные) | Английские (полные) |
    Продолжительность:01:26:27
    Релиз без рекламы.
  • Тайная жизнь домашних животных (2016)  BDRip 1080p | Лицензия Тайная жизнь домашних животных (2016)  BDRip 1080p | Лицензия Тайная жизнь домашних животных (2016)  BDRip 1080p | Лицензия
  • x264 [info]: frame I:982 Avg QP:14.34 size:266907
    x264 [info]: frame P:40816 Avg QP:17.57 size: 72776
    x264 [info]: frame B:82570 Avg QP:19.09 size: 25515

    Общее
    Уникальный идентификатор : 186793667842872961603584307167700628490 (0x8C8726DE771E71ABA53BD3E829AEB40A)
    Полное имя : X:ATorrentThe.Secret.Life.of.Pets.(2016).BDRip.1080p.(qqss44).mkv
    Формат : Matroska
    Версия формата : Version 2
    Размер файла : 5,75 Гбайт
    Продолжительность : 1 ч. 26 м.
    Общий поток : 9517 Кбит/сек
    Название фильма : The.Secret.Life.of.Pets.(2016).BDRip.1080p.(qqss44)
    Дата кодирования : UTC 2016-12-08 23:37:49
    Программа кодирования : mkvmerge v7.9.0 ('Birds') 64bit
    Библиотека кодирования : libebml v1.3.1 + libmatroska v1.4.2

    Видео
    Идентификатор : 1
    Формат : AVC
    Формат/Информация : Advanced Video Codec
    Профиль формата : High@L4.1
    Параметр CABAC формата : Да
    Параметр ReFrames формата : 4 кадра
    Идентификатор кодека : V_MPEG4/ISO/AVC
    Продолжительность : 1 ч. 26 м.
    Битрейт : 8240 Кбит/сек
    Ширина : 1920 пикселей
    Высота : 1036 пикселей
    Соотношение сторон : 1,85:1
    Режим частоты кадров : Постоянный
    Частота кадров : 23,976 (24000/1001) кадра/сек
    Цветовое пространство : YUV
    Субдискретизация насыщенности : 4:2:0
    Битовая глубина : 8 бит
    Тип развёртки : Прогрессивная
    Бит/(Пиксели*Кадры) : 0.173
    Размер потока : 4,97 Гбайт (87%)
    Заголовок : The.Secret.Life.of.Pets.(2016)
    Библиотека кодирования : x264 core 148 r2721kMod 72d53ab
    Настройки программы : cabac=1 / ref=4 / deblock=1:-3:-3 / analyse=0x3:0x133 / me=umh / subme=11 / psy=1 / fade_compensate=0.00 / psy_rd=1.00:0.00 / mixed_ref=1 / me_range=32 / chroma_me=1 / trellis=2 / 8x8dct=1 / cqm=0 / deadzone=21,11 / fast_pskip=0 / chroma_qp_offset=-2 / threads=12 / lookahead_threads=2 / sliced_threads=0 / nr=0 / decimate=0 / interlaced=0 / bluray_compat=0 / constrained_intra=0 / fgo=0 / bframes=9 / b_pyramid=2 / b_adapt=2 / b_bias=0 / direct=3 / weightb=1 / open_gop=0 / weightp=2 / keyint=240 / keyint_min=23 / scenecut=40 / intra_refresh=0 / rc=2pass / mbtree=0 / bitrate=8240 / ratetol=1.0 / qcomp=0.60 / qpmin=0 / qpmax=69 / qpstep=4 / cplxblur=20.0 / qblur=0.5 / ip_ratio=1.40 / pb_ratio=1.30 / aq=3:0.70
    Язык : English
    Default : Да
    Forced : Нет

    Аудио #1
    Идентификатор : 2
    Формат : AC-3
    Формат/Информация : Audio Coding 3
    Расширение режима : CM (complete main)
    Параметр Endianness формата : Big
    Идентификатор кодека : A_AC3
    Продолжительность : 1 ч. 26 м.
    Вид битрейта : Постоянный
    Битрейт : 640 Кбит/сек
    Каналы : 6 каналов
    Расположение каналов : Front: L C R, Side: L R, LFE
    Частота : 48,0 КГц
    Частота кадров : 31,250 кадров/сек (1536 spf)
    Метод сжатия : С потерями
    Размер потока : 396 Мбайт (7%)
    Заголовок : DUB | DD5.1 @ 640 kbps
    Язык : Russian
    Default : Да
    Forced : Нет

    Аудио #2
    Идентификатор : 3
    Формат : AC-3
    Формат/Информация : Audio Coding 3
    Расширение режима : CM (complete main)
    Параметр Endianness формата : Big
    Идентификатор кодека : A_AC3
    Продолжительность : 1 ч. 26 м.
    Вид битрейта : Постоянный
    Битрейт : 640 Кбит/сек
    Каналы : 6 каналов
    Расположение каналов : Front: L C R, Side: L R, LFE
    Частота : 48,0 КГц
    Частота кадров : 31,250 кадров/сек (1536 spf)
    Метод сжатия : С потерями
    Размер потока : 396 Мбайт (7%)
    Заголовок : Original | DD5.1 @ 640 kbps
    Язык : English
    Default : Нет
    Forced : Нет

    Текст #1
    Идентификатор : 4
    Формат : UTF-8
    Идентификатор кодека : S_TEXT/UTF8
    Идентификатор кодека/Информация : UTF-8 Plain Text
    Продолжительность : 1 ч. 12 м.
    Битрейт : 1 бит/сек
    Count of elements : 17
    Размер потока : 645 байт (0%)
    Заголовок : Forced
    Язык : Russian
    Default : Да
    Forced : Нет

    Текст #2
    Идентификатор : 5
    Формат : UTF-8
    Идентификатор кодека : S_TEXT/UTF8
    Идентификатор кодека/Информация : UTF-8 Plain Text
    Продолжительность : 1 ч. 25 м.
    Битрейт : 50 бит/сек
    Count of elements : 1314
    Размер потока : 31,5 Кбайт (0%)
    Заголовок : Full
    Язык : English
    Default : Нет
    Forced : Нет

    Меню
    00:00:00.000 : en:00:00:00.000
    00:05:05.847 : en:00:05:05.847
    00:09:24.063 : en:00:09:24.063
    00:13:18.840 : en:00:13:18.840
    00:18:03.666 : en:00:18:03.666
    00:22:14.458 : en:00:22:14.458
    00:28:51.855 : en:00:28:51.855
    00:32:54.848 : en:00:32:54.848
    00:36:55.839 : en:00:36:55.839
    00:42:27.295 : en:00:42:27.295
    00:44:46.767 : en:00:44:46.767
    00:50:21.227 : en:00:50:21.227
    00:54:45.407 : en:00:54:45.407
    00:59:33.987 : en:00:59:33.987
    01:02:36.544 : en:01:02:36.544
    01:07:12.362 : en:01:07:12.362
    01:13:06.841 : en:01:13:06.841
    01:16:04.602 : en:01:16:04.602
    01:18:48.057 : en:01:18:48.057
    01:19:58.836 : en:01:19:58.836
9.6 из 10
голосов: 14
/10
/10
darkmagikan Вчера, 03:43
Информация
Посетители, находящиеся в группе Гости, не могут оставлять комментарии к данной публикации.