Панель пользователя
Регистрация

Воспользуйтесь социальными сетями для входа на https://freerutor.com

vk odnoklassniki facebook mailru yandex google
Популярное
Счетчик
Голосуй за нас
VIP на сайте
Популярное
Товары интернет магазина
загрузка...

Черепашки-ниндзя 2 (2016) BDRip 720p | Лицензия

Черепашки-ниндзя 2 (2016) BDRip 720p | Лицензия
Участники торрент обмена
Сидов Пиров Скачали
88 2 6640
Характеристика
Размер Файлы
7.36 GB
Релиз группа
Поделиться раздачей
Фильмы (720,1080,Blu-Ray)
Наименование: Черепашки-ниндзя 2
Оригинальное наименование: Teenage Mutant Ninja Turtles: Out of the Shadows
Категория: Фантастика, фэнтези, боевик, комедия, приключения
Произведено: США, Gama Entertainment Partners, Nickelodeon Movies, Paramount Pictures, Platinum Dunes
Режиссер постановщик: Дэйв Грин
В главных ролях: Меган Фокс, Стивен Амелл, Алан Ричсон, Уилл Арнетт, Стефен Фаррелли, Алессандра Амброзио, Брэд Гэррет, Тайлер Перри
Краткое описание: Долгое время черепашки-ниндзя скрывались от людей в лабиринтах городской канализации. На протяжении нескольких лет учитель Сплинтер обучал их боевым искусствам и прививал им чувство справедливости. В один прекрасный момент им пришлось подняться наверх, чтобы спасти Нью-Йорк от Шредера, предводителя Клана Футов, захватившего власть в Нью-Йорке. Вместе с отважным репортером Эйприл и ее оператором Верном, бесстрашные воины смогли одержать победу и очистить любимый город от преступности. Леонардо, Микеланджело, Рафаэль и Донателло нашли свое предназначение в этом мире и стали защитниками своего города. Они навели порядок в Нью-Йорке и с чистой совестью могли отправиться на покой, но однажды им вновь пришлось столкнуться с могущественным врагом, угрожающим их городу…
  • Видео данные: MPEG-4 AVC, 7929 Кбит/с, 1280x534
    Аудио данные: Русский, английский (AC3, 6 ch, 640 Кбит/с)
    Перевод: Дублированный (лицензия)
    Субтитры: Русские, английские
    Продолжительность: 01:52:15
  • Черепашки-ниндзя 2 (2016) BDRip 720p | Лицензия Черепашки-ниндзя 2 (2016) BDRip 720p | Лицензия Черепашки-ниндзя 2 (2016) BDRip 720p | Лицензия
  • x264 [info]: frame I:1604 Avg QP:15.48 size:132845
    x264 [info]: frame P:44826 Avg QP:17.10 size: 65401
    x264 [info]: frame B:114871 Avg QP:18.69 size: 31986

    Format : Matroska
    Format version : Version 4 / Version 2
    File size : 7.36 GiB
    Duration : 1h 52mn
    Overall bit rate : 9 391 Kbps
    Movie name : Черепашки-ниндзя 2. (Tonik)
    Encoded date : UTC 2016-09-10 06:19:40
    Writing application : mkvmerge v7.1.0 ('Good Love') 64bit built on Jul 27 2014 13:06:55
    Writing library : libebml v1.3.0 + libmatroska v1.4.1
    _STATISTICS_WRITING_APP : mkvmerge v7.1.0 ('Good Love') 64bit built on Jul 27 2014 13:06:55
    _STATISTICS_WRITING_DATE_UTC : 2016-09-10 06:19:40
    _STATISTICS_TAGS : BPS DURATION NUMBER_OF_FRAMES NUMBER_OF_BYTES
    DURATION : 01:52:07.616000000
    NUMBER_OF_FRAMES : 210238
    NUMBER_OF_BYTES : 538209280

    Video
    ID : 1
    Format : AVC
    Format/Info : Advanced Video Codec
    Format profile : High@L4.1
    Format settings, CABAC : Yes
    Format settings, ReFrames : 12 frames
    Codec ID : V_MPEG4/ISO/AVC
    Bit rate : 7 924 Kbps
    Width : 1 280 pixels
    Height : 534 pixels
    Display aspect ratio : 2.40:1
    Frame rate mode : Variable
    Original frame rate : 23.976 fps
    Color space : YUV
    Chroma subsampling : 4:2:0
    Bit depth : 8 bits
    Scan type : Progressive
    Writing library : x264 core 148 r2705kMod 3f5ed56
    Encoding settings : cabac=1 / ref=12 / deblock=1:-3:-3 / analyse=0x3:0x133 / me=umh / subme=10 / psy=1 / fade_compensate=0.00 / psy_rd=1.00:0.00 / mixed_ref=1 / me_range=24 / chroma_me=1 / trellis=2 / 8x8dct=1 / cqm=0 / deadzone=21,11 / fast_pskip=0 / chroma_qp_offset=-2 / threads=17 / lookahead_threads=2 / sliced_threads=0 / nr=0 / decimate=0 / interlaced=0 / bluray_compat=0 / constrained_intra=0 / fgo=0 / bframes=8 / b_pyramid=2 / b_adapt=2 / b_bias=0 / direct=3 / weightb=1 / open_gop=0 / weightp=2 / keyint=250 / keyint_min=23 / scenecut=40 / intra_refresh=0 / rc_lookahead=60 / rc=crf / mbtree=0 / crf=16.0000 / qcomp=0.65 / qpmin=0 / qpmax=69 / qpstep=4 / vbv_maxrate=62500 / vbv_bufsize=78125 / crf_max=0.0 / nal_hrd=none / filler=0 / ip_ratio=1.30 / pb_ratio=1.20 / aq=3:0.80
    Language : English
    Default : Yes
    Forced : No
    Matrix coefficients : BT.709
    _STATISTICS_WRITING_APP : mkvmerge v7.1.0 ('Good Love') 64bit built on Jul 27 2014 13:06:55
    _STATISTICS_WRITING_DATE_UTC : 2016-09-10 06:19:40
    _STATISTICS_TAGS : BPS DURATION NUMBER_OF_FRAMES NUMBER_OF_BYTES
    DURATION : 01:52:07.596000000
    NUMBER_OF_FRAMES : 161301
    NUMBER_OF_BYTES : 6818987111

    Audio #1
    ID : 2
    Format : AC-3
    Format/Info : Audio Coding 3
    Mode extension : CM (complete main)
    Format settings, Endianness : Big
    Codec ID : A_AC3
    Duration : 1h 52mn
    Bit rate mode : Constant
    Bit rate : 640 Kbps
    Channel(s) : 6 channels
    Channel positions : Front: L C R, Side: L R, LFE
    Sampling rate : 48.0 KHz
    Bit depth : 16 bits
    Compression mode : Lossy
    Stream size : 513 MiB (7%)
    Language : Russian
    Default : Yes
    Forced : No

    Audio #2
    ID : 3
    Format : AC-3
    Format/Info : Audio Coding 3
    Mode extension : CM (complete main)
    Format settings, Endianness : Big
    Codec ID : A_AC3
    Duration : 1h 52mn
    Bit rate mode : Constant
    Bit rate : 640 Kbps
    Channel(s) : 6 channels
    Channel positions : Front: L C R, Side: L R, LFE
    Sampling rate : 48.0 KHz
    Bit depth : 16 bits
    Compression mode : Lossy
    Stream size : 513 MiB (7%)
    Language : English
    Default : No
    Forced : No

    Text #1
    ID : 4
    Format : UTF-8
    Codec ID : S_TEXT/UTF8
    Codec ID/Info : UTF-8 Plain Text
    Title : Forced
    Language : Russian
    Default : Yes
    Forced : No

    Text #2
    ID : 5
    Format : UTF-8
    Codec ID : S_TEXT/UTF8
    Codec ID/Info : UTF-8 Plain Text
    Language : Russian
    Default : No
    Forced : No

    Text #3
    ID : 6
    Format : UTF-8
    Codec ID : S_TEXT/UTF8
    Codec ID/Info : UTF-8 Plain Text
    Language : English
    Default : No
    Forced : No

    Text #4
    ID : 7
    Format : UTF-8
    Codec ID : S_TEXT/UTF8
    Codec ID/Info : UTF-8 Plain Text
    Title : SDH
    Language : English
    Default : No
    Forced : No

    Menu
    00:00:00.000 : en:00:00:00.000
    00:05:55.564 : en:00:05:55.564
    00:12:18.571 : en:00:12:18.571
    00:18:53.507 : en:00:18:53.507
    00:26:38.096 : en:00:26:38.096
    00:33:14.492 : en:00:33:14.492
    00:38:56.459 : en:00:38:56.459
    00:44:11.190 : en:00:44:11.190
    00:49:40.311 : en:00:49:40.311
    00:55:40.629 : en:00:55:40.629
    01:02:01.259 : en:01:02:01.259
    01:04:51.971 : en:01:04:51.971
    01:14:32.760 : en:01:14:32.760
    01:21:18.415 : en:01:21:18.415
    01:28:10.160 : en:01:28:10.160
    01:36:58.229 : en:01:36:58.229
    01:41:52.023 : en:01:41:52.023
    01:46:20.874 : en:01:46:20.874
7.3 из 10
голосов: 12
/10
/10
bond74 10-09-2016, 10:03
Информация
Посетители, находящиеся в группе Гости, не могут оставлять комментарии к данной публикации.