Панель пользователя
Регистрация

Воспользуйтесь социальными сетями для входа на https://freerutor.com

vk odnoklassniki facebook mailru yandex google
Популярное
Счетчик
Голосуй за нас
VIP на сайте
Популярное
Товары интернет магазина
загрузка...

Кровный отец (2016) BDRip 720p

Кровный отец (2016) BDRip 720p
Участники торрент обмена
Сидов Пиров Скачали
16 0 2169
Характеристика
Размер Файлы
5.15 GB
Поделиться раздачей
Фильмы (720,1080,Blu-Ray)
Наименование: Кровный отец
Оригинальное наименование: Blood Father
Категория: Боевик, триллер
Произведено: Франция, Why Not Productions
Режиссер постановщик: Жан-Франсуа Рише
В главных ролях: Мэл Гибсон, Эрин Мориарти, Диего Луна, Майкл Паркс, Уильям Х. Мэйси, Мигель Сандовал, Дейл Дикки, Ричард Кебрал, Дэниэл Монкада, Райан Дорси
Краткое описание: Бывший заключенный, раньше не участвовавший в воспитании дочери, узнав о том, что его дочь преследуют наркоторговцы и жаждут ее смерти, решил помочь ей с проблемами.
  • Видео данные: MPEG-4 AVC, 4900 kb/s, 1280x536
    Аудио данные: Russian AC3, 448 kb/s (6 ch), DTS, 1509 kb/s (6 ch) / English: DTS, 1509 kb/s (6 ch)
    Перевод: Профессиональный многоголосый [Студия "Paradox" & Omskbird records]
    Субтитры: English
    Продолжительность: 01:28:11
    Без рекламы.
  • Кровный отец (2016) BDRip 720p Кровный отец (2016) BDRip 720p Кровный отец (2016) BDRip 720p
  • Общее
    Уникальный идентификатор : 219411695091450023098378922368001294224 (0xA51127C67EA3C401A298B37D24D2BF90)
    Полное имя : D:загрузкиBlood.Father.2O16.P.BDRip.72Op.mkv
    Формат : Matroska
    Версия формата : Version 2
    Размер файла : 5,15 Гбайт
    Продолжительность : 1 ч. 28 м.
    Общий поток : 8365 Кбит/сек
    Дата кодирования : UTC 2016-09-30 17:15:22
    Программа кодирования : mkvmerge v7.8.0 ('River Man') 32bit built on Apr 3 2015 12:11:22
    Библиотека кодирования : libebml v1.3.1 + libmatroska v1.4.2

    Видео
    Идентификатор : 1
    Формат : AVC
    Формат/Информация : Advanced Video Codec
    Профиль формата : High@L4.1
    Параметр CABAC формата : Да
    Параметр ReFrames формата : 12 кадров
    Идентификатор кодека : V_MPEG4/ISO/AVC
    Продолжительность : 1 ч. 28 м.
    Битрейт : 4900 Кбит/сек
    Ширина : 1280 пикселей
    Высота : 536 пикселей
    Соотношение сторон : 2,40:1
    Режим частоты кадров : Постоянный
    Частота кадров : 23,976 кадра/сек
    Цветовое пространство : YUV
    Субдискретизация насыщенности : 4:2:0
    Битовая глубина : 8 бит
    Тип развёртки : Прогрессивная
    Бит/(Пиксели*Кадры) : 0.298
    Размер потока : 2,92 Гбайт (57%)
    Библиотека кодирования : x264 core 148 r2665kMod a01e339
    Настройки программы : cabac=1 / ref=12 / deblock=1:-3:-3 / analyse=0x3:0x133 / me=umh / subme=11 / psy=1 / fade_compensate=0.00 / psy_rd=1.05:0.00 / mixed_ref=1 / me_range=32 / chroma_me=1 / trellis=2 / 8x8dct=1 / cqm=0 / deadzone=21,11 / fast_pskip=0 / chroma_qp_offset=-2 / threads=17 / lookahead_threads=2 / sliced_threads=0 / nr=0 / decimate=0 / interlaced=0 / bluray_compat=0 / constrained_intra=0 / fgo=0 / bframes=8 / b_pyramid=2 / b_adapt=2 / b_bias=0 / direct=3 / weightb=1 / open_gop=0 / weightp=2 / keyint=240 / keyint_min=24 / scenecut=40 / intra_refresh=0 / rc=2pass / mbtree=0 / bitrate=4900 / ratetol=1.0 / qcomp=0.70 / qpmin=0 / qpmax=69 / qpstep=4 / cplxblur=20.0 / qblur=0.5 / ip_ratio=1.20 / pb_ratio=1.20 / aq=3:0.85
    Язык : English
    Default : Да
    Forced : Нет

    Аудио #1
    Идентификатор : 2
    Формат : AC-3
    Формат/Информация : Audio Coding 3
    Расширение режима : CM (complete main)
    Параметр Endianness формата : Big
    Идентификатор кодека : A_AC3
    Продолжительность : 1 ч. 28 м.
    Вид битрейта : Постоянный
    Битрейт : 448 Кбит/сек
    Каналы : 6 каналов
    Расположение каналов : Front: L C R, Side: L R, LFE
    Частота : 48,0 КГц
    Битовая глубина : 16 бит
    Метод сжатия : С потерями
    Размер потока : 283 Мбайт (5%)
    Заголовок : Paradox
    Язык : Russian
    Default : Да
    Forced : Нет

    Аудио #2
    Идентификатор : 3
    Формат : DTS
    Формат/Информация : Digital Theater Systems
    Режим : 16
    Параметр Endianness формата : Big
    Идентификатор кодека : A_DTS
    Продолжительность : 1 ч. 28 м.
    Вид битрейта : Постоянный
    Битрейт : 1509 Кбит/сек
    Каналы : 6 каналов
    Расположение каналов : Front: L C R, Side: L R, LFE
    Частота : 48,0 КГц
    Битовая глубина : 24 бит
    Метод сжатия : С потерями
    Размер потока : 952 Мбайт (18%)
    Заголовок : Paradox
    Язык : Russian
    Default : Нет
    Forced : Нет

    Аудио #3
    Идентификатор : 4
    Формат : DTS
    Формат/Информация : Digital Theater Systems
    Режим : 16
    Параметр Endianness формата : Big
    Идентификатор кодека : A_DTS
    Продолжительность : 1 ч. 28 м.
    Вид битрейта : Постоянный
    Битрейт : 1509 Кбит/сек
    Каналы : 6 каналов
    Расположение каналов : Front: L C R, Side: L R, LFE
    Частота : 48,0 КГц
    Битовая глубина : 24 бит
    Метод сжатия : С потерями
    Размер потока : 952 Мбайт (18%)
    Заголовок : Original
    Язык : English
    Default : Нет
    Forced : Нет

    Текст #1
    Идентификатор : 5
    Формат : UTF-8
    Идентификатор кодека : S_TEXT/UTF8
    Идентификатор кодека/Информация : UTF-8 Plain Text
    Заголовок : full
    Язык : English
    Default : Нет
    Forced : Нет

    Текст #2
    Идентификатор : 6
    Формат : UTF-8
    Идентификатор кодека : S_TEXT/UTF8
    Идентификатор кодека/Информация : UTF-8 Plain Text
    Заголовок : SDH
    Язык : English
    Default : Нет
    Forced : Нет

    Меню
    00:00:00.000 : en:00:00:00.000
    00:07:02.797 : en:00:07:02.797
    00:10:16.741 : en:00:10:16.741
    00:15:59.584 : en:00:15:59.584
    00:22:02.196 : en:00:22:02.196
    00:28:58.695 : en:00:28:58.695
    00:32:28.947 : en:00:32:28.947
    00:38:43.112 : en:00:38:43.112
    00:45:11.584 : en:00:45:11.584
    00:48:45.839 : en:00:48:45.839
    00:52:44.369 : en:00:52:44.369
    00:57:36.328 : en:00:57:36.328
    01:02:32.707 : en:01:02:32.707
    01:07:51.734 : en:01:07:51.734
    01:12:41.607 : en:01:12:41.607
    01:20:57.561 : en:01:20:57.561
7.8 из 10
голосов: 13
/10
/10
karta 30-09-2016, 23:49

BuDiSt | 4-09-2016, 16:25 | Статус: Оффлайн

озвучка наихучшая
Информация
Посетители, находящиеся в группе Гости, не могут оставлять комментарии к данной публикации.