Панель пользователя
Регистрация

Воспользуйтесь социальными сетями для входа на https://freerutor.com

vk odnoklassniki facebook mailru yandex google
Популярное
Счетчик
Голосуй за нас
VIP на сайте
Популярное
Товары интернет магазина
загрузка...

Трудная мишень 2 (2016) Blu-Ray Remux 1080p | Лицензия

Трудная мишень 2 (2016) Blu-Ray Remux 1080p | Лицензия
Участники торрент обмена
Сидов Пиров Скачали
3 0 331
Характеристика
Размер Файлы
16.21 GB
Релиз группа
Поделиться раздачей
Фильмы (720,1080,Blu-Ray)
Наименование: Трудная мишень 2
Оригинальное наименование: Hard Target 2
Категория: Боевик, триллер
Произведено: США, Living Films, Universal 1440 Entertainment
Режиссер: Роэль Рейн
В главных ролях: Скотт Эдкинс, Роберт Неппер, Рона Митра, Темуэра Моррисон, Адам Саундерс, Джэйми Тимони, Питер Харди, Шон Кинэн
Краткое описание: Продолжение культового экшн-триллера 1993 года о подпольных игрищах, где проплаченные «охотники» травят, как дичь, похищенных людей. Новой мишенью становится опальный мастер боевых искусств, который соблазнился деньгами, даже не подозревая, на что подписывается. Но и его преследователи еще не знают, с кем связались.
  • Видео данные: MPEG-4 AVC, 17.5 Mбит/с, 1920x1080
    Аудио данные: Русский (AC3, 6 ch, 448 Кбит/с), английский (DTS-HD MA, 6 ch, 4438 Кбит/с)
    Перевод: Дублированный [лицензия]
    Продолжительность: 01:43:33
  • Трудная мишень 2 (2016) Blu-Ray Remux 1080p | Лицензия Трудная мишень 2 (2016) Blu-Ray Remux 1080p | Лицензия Трудная мишень 2 (2016) Blu-Ray Remux 1080p | Лицензия
  • 1.General
    2.Unique ID : 253086472053651470627331306607127137395 (0xBE66AE77185024BBB992A9DABC398C73)
    3.Complete name : G:\Video\Hard.Target.2.2016.BDREMUX.1080p.ExKinoRay.mkv
    4.Format : Matroska
    5.Format version : Version 4 / Version 2
    6.File size : 16.2 GiB
    7.Duration : 1 h 43 min
    8.Overall bit rate mode : Variable
    9.Overall bit rate : 22.4 Mb/s
    10.Movie name : Hard.Target.2.2016.BDREMUX.1080p.ExKinoRay
    11.Encoded date : UTC 2016-08-26 00:33:11
    12.Writing application : mkvmerge v8.3.0 ('Over the Horizon') 64bit
    13.Writing library : libebml v1.3.1 + libmatroska v1.4.2
    14.
    15.Video
    16.ID : 1
    17.Format : AVC
    18.Format/Info : Advanced Video Codec
    19.Format profile : High@L4.1
    20.Format settings, CABAC : Yes
    21.Format settings, ReFrames : 2 frames
    22.Codec ID : V_MPEG4/ISO/AVC
    23.Duration : 1 h 43 min
    24.Bit rate mode : Variable
    25.Bit rate : 17.5 Mb/s
    26.Maximum bit rate : 34.7 Mb/s
    27.Width : 1 920 pixels
    28.Height : 1 080 pixels
    29.Display aspect ratio : 16:9
    30.Frame rate mode : Constant
    31.Frame rate : 23.976 (24000/1001) FPS
    32.Color space : YUV
    33.Chroma subsampling : 4:2:0
    34.Bit depth : 8 bits
    35.Scan type : Progressive
    36.Bits/(Pixel*Frame) : 0.352
    37.Stream size : 12.7 GiB (78%)
    38.Language : English
    39.Default : Yes
    40.Forced : No
    41.
    42.Audio #1
    43.ID : 2
    44.Format : AC-3
    45.Format/Info : Audio Coding 3
    46.Mode extension : CM (complete main)
    47.Format settings, Endianness : Big
    48.Codec ID : A_AC3
    49.Duration : 1 h 43 min
    50.Bit rate mode : Constant
    51.Bit rate : 448 kb/s
    52.Channel(s) : 6 channels
    53.Channel positions : Front: L C R, Side: L R, LFE
    54.Sampling rate : 48.0 kHz
    55.Frame rate : 31.250 FPS (1536 spf)
    56.Compression mode : Lossy
    57.Stream size : 332 MiB (2%)
    58.Language : Russian
    59.Default : Yes
    60.Forced : No
    61.
    62.Audio #2
    63.ID : 3
    64.Format : DTS
    65.Format/Info : Digital Theater Systems
    66.Format profile : MA / Core
    67.Mode : 16
    68.Format settings, Endianness : Big
    69.Codec ID : A_DTS
    70.Duration : 1 h 43 min
    71.Bit rate mode : Variable / Constant
    72.Bit rate : 4 438 kb/s / 1 509 kb/s
    73.Channel(s) : 6 channels
    74.Channel positions : Front: L C R, Side: L R, LFE
    75.Sampling rate : 48.0 kHz
    76.Frame rate : 93.750 FPS (512 spf)
    77.Bit depth : 24 bits
    78.Compression mode : Lossless / Lossy
    79.Stream size : 3.21 GiB (20%)
    80.Language : English
    81.Default : No
    82.Forced : No
    83.
    84.Menu
    85.00:00:00.000 : en:Chapter 01
    86.00:05:23.281 : en:Chapter 02
    87.00:10:12.987 : en:Chapter 03
    88.00:15:53.202 : en:Chapter 04
    89.00:20:13.546 : en:Chapter 05
    90.00:23:41.462 : en:Chapter 06
    91.00:28:51.229 : en:Chapter 07
    92.00:33:30.383 : en:Chapter 08
    93.00:39:37.208 : en:Chapter 09
    94.00:45:05.286 : en:Chapter 10
    95.00:49:43.105 : en:Chapter 11
    96.00:53:26.954 : en:Chapter 12
    97.00:58:40.392 : en:Chapter 13
    98.01:02:42.467 : en:Chapter 14
    99.01:08:22.598 : en:Chapter 15
    100.01:12:51.075 : en:Chapter 16
    101.01:17:35.401 : en:Chapter 17
    102.01:20:58.270 : en:Chapter 18
    103.01:26:11.500 : en:Chapter 19
    104.01:31:42.247 : en:Chapter 20
9.8 из 10
голосов: 9
/10
/10
616759 26-08-2016, 22:04
Информация
Посетители, находящиеся в группе Гости, не могут оставлять комментарии к данной публикации.