Панель пользователя
Регистрация

Воспользуйтесь социальными сетями для входа на https://freerutor.com

vk odnoklassniki facebook mailru yandex google
Популярное
Счетчик
Голосуй за нас
VIP на сайте
Популярное
Товары интернет магазина
загрузка...

Виды из космоса и райская музыка (2006) HDDVDRip-AVC

Виды из космоса и райская музыка (2006) HDDVDRip-AVC
Участники торрент обмена
Сидов Пиров Скачали
1 0 70
Характеристика
Размер Файлы
1.00 GB
Релиз группа
Поделиться раздачей
Документальный
Наименование: Виды из космоса и райская музыка
Оригинальное наименование: A View From Space with Heavenly Music
Категория: Документальный, видовой, релаксация
Произведено: США, Weasel Disc Records
Краткое описание: 55 минут классической музыки в формате Dolby Digital 5.1 на фоне видеозарисовок, снятых с борта шаттла "Endeavour".
  • Видео данные: MPEG-4 AVC, 2000 Кбит/с, 1024x576, 29.970 Кадр/с
    Аудио данные: AC3, 6 ch, 448 Кбит/с
    Перевод: Не требуется
    Продолжительность: 00:58:13
  • Виды из космоса и райская музыка (2006) HDDVDRip-AVC Виды из космоса и райская музыка (2006) HDDVDRip-AVC Виды из космоса и райская музыка (2006) HDDVDRip-AVC
  • Треклист:
    01. Ravel - Bolero
    02. Beethoven - Fur Elise
    03. Pachelbel - Canon in D
    04. Grieg - Dawn from «Peer Gynt»
    05. Boccherini - Minuet from String Quartet in E Major, Op. 13, No. 5
    06. Bach - Orchestral Suite No. 2 - Minuet
    07. Bach - Jesu, Joy of Man's Desiring
    08. Bach - Prelude and Fugue in C Major
    09. Bach - Arioso for Brass
    10. Beethoven - Adagio Sostenuto from «Moonlight» sonata
    11. Tchaikovsky - Dance of the Sugar Plum Fairy
    12. Tchaikovsky - Chinese Dance
    13. Tchaikovsky - Waltz of the Flowers
    14. Brahms - Walt in C Sharp minor, Op. 64, No. 2
    15. Satie - Lent et Douloureux from «Trois Gymnopedies»
    16. Debussy - Clair de Lune

    MediaInfo:
    Общее
    Уникальный идентификатор : 218903951714022803813853044068882167852 (0xA4AF5E1816DBC678922F96A82DEDB82C)
    Полное имя : E:2Vidy.iz.kosmosa.i.rajskaja.muzyka.2006.x264.HDDVDRip.(AVC).ExKinoRay.mkv
    Формат : Matroska
    Размер файла : 1019 Мбайт
    Продолжительность : 58 м.
    Общий поток : 2451 Кбит/сек
    Дата кодирования : UTC 2013-08-25 13:54:51
    Программа кодирования : mkvmerge v4.0.0 ('The Stars were mine') сборка от Jun 6 2010 16:18:42
    Библиотека кодирования : libebml v1.0.0 + libmatroska v1.0.0

    Видео
    Идентификатор : 1
    Формат : AVC
    Формат/Информация : Advanced Video Codec
    Профиль формата : High@L4.1
    Параметр CABAC формата : Да
    Параметр ReFrames формата : 8 кадров
    Идентификатор кодека : V_MPEG4/ISO/AVC
    Продолжительность : 58 м.
    Битрейт : 2000 Кбит/сек
    Ширина : 1024 пикс.
    Высота : 576 пикс.
    Соотношение сторон : 16:9
    Частота кадров : 29,970 кадр/сек
    Цветовое пространство : YUV
    Подвыборка цветности : 4:2:0
    Битовая глубина : 8 бит
    Тип развёртки : Прогрессивная
    Бит/(Пиксели*Кадры) : 0.113
    Размер потока : 813 Мбайт (80%)
    Библиотека кодирования : x264 core 125 r2208 d9d2288
    Настройки программы : cabac=1 / ref=8 / deblock=1:-2:-2 / analyse=0x3:0x133 / me=umh / subme=11 / psy=1 / psy_rd=1.00:0.00 / mixed_ref=1 / me_range=48 / chroma_me=1 / trellis=2 / 8x8dct=1 / cqm=0 / deadzone=21,11 / fast_pskip=0 / chroma_qp_offset=-2 / threads=3 / lookahead_threads=1 / sliced_threads=0 / nr=0 / decimate=1 / interlaced=0 / bluray_compat=0 / constrained_intra=0 / bframes=8 / b_pyramid=2 / b_adapt=2 / b_bias=0 / direct=3 / weightb=1 / open_gop=0 / weightp=2 / keyint=250 / keyint_min=25 / scenecut=40 / intra_refresh=0 / rc_lookahead=50 / rc=2pass / mbtree=1 / bitrate=2000 / ratetol=1.0 / qcomp=0.60 / qpmin=10 / qpmax=51 / qpstep=4 / cplxblur=20.0 / qblur=0.5 / ip_ratio=1.40 / aq=1:1.00
    Язык : English

    Аудио
    Идентификатор : 2
    Формат : AC-3
    Формат/Информация : Audio Coding 3
    Расширение режима : CM (complete main)
    Идентификатор кодека : A_AC3
    Продолжительность : 58 м.
    Вид битрейта : Постоянный
    Битрейт : 448 Кбит/сек
    Каналы : 6 каналов
    Расположение каналов : Front: L C R, Side: L R, LFE
    Частота : 48,0 КГц
    Битовая глубина : 16 бит
    Метод сжатия : С потерями
    Размер потока : 186 Мбайт (18%)
    Язык : English
10.0 из 10
голосов: 1
616759 26-08-2016, 21:11
Информация
Посетители, находящиеся в группе Гости, не могут оставлять комментарии к данной публикации.