Панель пользователя
Регистрация

Воспользуйтесь социальными сетями для входа на https://freerutor.com

vk odnoklassniki facebook mailru yandex google
Популярное
Счетчик
Голосуй за нас
VIP на сайте
Популярное
Товары интернет магазина
загрузка...

Трудная мишень 2 (2016) BDRip 720p | Лицензия

Трудная мишень 2 (2016)  BDRip 720p | Лицензия
Участники торрент обмена
Сидов Пиров Скачали
60 2 8070
Характеристика
Размер Файлы
6.84 GB
Поделиться раздачей
Фильмы (720,1080,Blu-Ray)
Наименование: Трудная мишень 2
Оригинальное наименование: Hard Target 2
Произведено: США
Категория: боевик, триллер
Режиссер постановщик: Роэль Рейн
В главных ролях: Скотт Эдкинс, Роберт Неппер, Рона Митра, Темуэра Моррисон, Адам Саундерс, Джэйми Тимони, Питер Харди, Шон Кинэн
Краткое описание: Продолжение культового экшн-триллера 1993 года о подпольных игрищах, где проплаченные «охотники» травят, как дичь, похищенных людей. Новой мишенью становится опальный мастер боевых искусств, который соблазнился деньгами, даже не подозревая, на что подписывается. Но и его преследователи еще не знают, с кем связались.
  • Видео данные:MPEG-4 AVC,, 7500 kb/s, 1280x720
    Аудио данные: Russian: AC3, 448 kb/s (6 ch) / English: DTS, 1509 kb/s (6 ch)
    Перевод: Дублированный [лицензия]
    Продолжительность: 01:43:33
  • Трудная мишень 2 (2016)  BDRip 720p | Лицензия Трудная мишень 2 (2016)  BDRip 720p | Лицензия Трудная мишень 2 (2016)  BDRip 720p | Лицензия
  • Общее
    Уникальный идентификатор : 215340209426421692979105164235329319913 (0xA20104089E24C2A29FCC2E519ACD33E9)
    Полное имя : D:\загрузки\Hard.Target.2.2016.D.BluRay.720p.mkv
    Формат : Matroska
    Версия формата : Version 2
    Размер файла : 6,84 Гбайт
    Продолжительность : 1 ч. 43 м.
    Общий поток : 9455 Кбит/сек
    Дата кодирования : UTC 2016-08-25 23:32:06
    Программа кодирования : mkvmerge v7.8.0 ('River Man') 32bit built on Apr 3 2015 12:11:22
    Библиотека кодирования : libebml v1.3.1 + libmatroska v1.4.2

    Видео
    Идентификатор : 1
    Формат : AVC
    Формат/Информация : Advanced Video Codec
    Профиль формата : High@L4.1
    Параметр CABAC формата : Да
    Параметр ReFrames формата : 9 кадров
    Идентификатор кодека : V_MPEG4/ISO/AVC
    Продолжительность : 1 ч. 43 м.
    Битрейт : 7500 Кбит/сек
    Ширина : 1280 пикселей
    Высота : 720 пикселей
    Соотношение сторон : 16:9
    Режим частоты кадров : Постоянный
    Частота кадров : 23,976 кадра/сек
    Цветовое пространство : YUV
    Субдискретизация насыщенности : 4:2:0
    Битовая глубина : 8 бит
    Тип развёртки : Прогрессивная
    Бит/(Пиксели*Кадры) : 0.339
    Размер потока : 5,29 Гбайт (77%)
    Библиотека кодирования : x264 core 142 r2431+42 c69a006 tMod [8-bit@all X86]
    Настройки программы : cabac=1 / ref=9 / deblock=1:0:0 / analyse=0x3:0x113 / me=umh / subme=10 / psy=1 / fade_compensate=0.00 / psy_rd=1.05:0.10 / mixed_ref=1 / me_range=32 / chroma_me=1 / trellis=2 / 8x8dct=1 / cqm=0 / deadzone=21,11 / fast_pskip=0 / chroma_qp_offset=-2 / threads=12 / lookahead_threads=1 / sliced_threads=0 / nr=0 / decimate=1 / interlaced=0 / bluray_compat=0 / constrained_intra=0 / fgo=0 / bframes=6 / b_pyramid=2 / b_adapt=2 / b_bias=0 / direct=3 / weightb=1 / open_gop=0 / weightp=2 / keyint=250 / keyint_min=23 / scenecut=40 / intra_refresh=0 / rc=2pass / mbtree=0 / bitrate=7500 / ratetol=1.0 / qcomp=0.70 / qpmin=0:0:0 / qpmax=69:69:69 / qpstep=4 / cplxblur=20.0 / qblur=0.5 / ip_ratio=1.40 / pb_ratio=1.30 / aq=2:1.00 / aq-sensitivity=10.00 / aq-factor=1.00:1.00:1.00 / aq2=0 / aq3=0
    Default : Да
    Forced : Нет

    Аудио #1
    Идентификатор : 2
    Формат : AC-3
    Формат/Информация : Audio Coding 3
    Расширение режима : CM (complete main)
    Параметр Endianness формата : Big
    Идентификатор кодека : A_AC3
    Продолжительность : 1 ч. 43 м.
    Вид битрейта : Постоянный
    Битрейт : 448 Кбит/сек
    Каналы : 6 каналов
    Расположение каналов : Front: L C R, Side: L R, LFE
    Частота : 48,0 КГц
    Битовая глубина : 16 бит
    Метод сжатия : С потерями
    Размер потока : 332 Мбайт (5%)
    Язык : Russian
    Default : Да
    Forced : Нет

    Аудио #2
    Идентификатор : 3
    Формат : DTS
    Формат/Информация : Digital Theater Systems
    Режим : 16
    Параметр Endianness формата : Big
    Идентификатор кодека : A_DTS
    Продолжительность : 1 ч. 43 м.
    Вид битрейта : Постоянный
    Битрейт : 1509 Кбит/сек
    Каналы : 6 каналов
    Расположение каналов : Front: L C R, Side: L R, LFE
    Частота : 48,0 КГц
    Битовая глубина : 24 бит
    Метод сжатия : С потерями
    Размер потока : 1,09 Гбайт (16%)
    Язык : English
    Default : Нет
    Forced : Нет

    Меню
    00:00:00.000 : en:Chapter 01
    00:07:14.225 : en:Chapter 02
    00:12:38.800 : en:Chapter 03
    00:20:08.457 : en:Chapter 05
    00:24:32.179 : en:Chapter 06
    00:36:37.854 : en:Chapter 07
    00:45:52.140 : en:Chapter 09
    00:58:37.511 : en:Chapter 10
    01:10:27.682 : en:Chapter 11
    01:22:55.165 : en:Chapter 12

7.8 из 10
голосов: 4
/10
/10
karta 26-08-2016, 02:40

zet709 | 26-08-2016, 15:54 | Статус: Оффлайн

За кино спасибо.
Жалко только - не впечатлил никак. Вырос на ВанДамме и остальных боевиках 90х. Это типо вторая часть Трудной мишени. Умели тогда снимать, даже до сих пор иногда пересматриваю Кровавый спорт и т.д. но здесь не зацепил.
Кроме красивых вертушек в исполнении Эдкинса и посмотреть не на что, ей богу.
Информация
Посетители, находящиеся в группе Гости, не могут оставлять комментарии к данной публикации.