Панель пользователя
Регистрация

Воспользуйтесь социальными сетями для входа на https://freerutor.com

vk odnoklassniki facebook mailru yandex google
Популярное
Счетчик
Голосуй за нас
VIP на сайте
Популярное
Товары интернет магазина
загрузка...

Соседи. На тропе войны 2 (2016) BDRip-AVC | iTunes

Соседи. На тропе войны 2 (2016) BDRip-AVC | iTunes
Участники торрент обмена
Сидов Пиров Скачали
28 1 3115
Характеристика
Размер Файлы
2.07 GB
Релиз группа
Поделиться раздачей
Фильмы (AVC)
Наименование: Соседи. На тропе войны 2
Оригинальное наименование: Neighbors 2: Sorority Rising
Категория: комедия
Произведено: США
Режиссер постановщик: Николас Столлер
В главных ролях: Сет Роген (Mac Radner), Зак Эфрон (Teddy Sanders), Роуз Бирн (Kelly Radner), Хлоя Грейс Морец (Shelby), Айк Баринхолц (Jimmy), Кирси Клемонс (Beth), Дэйв Франко (Pete), Джеррод Кармайкл (Garf), Кристофер Минц-Плассе (Scoonie), Бини Фелдштейн (Nora), Клара Мамет (Maranda), Аквафина (Christine)
Краткое описание: На этот раз в дом по соседству с Маком и Келли въезжает университетский женский клуб. Чтобы разобраться с новыми соседями, которые не дают им покоя, Мак и Келли решают обратиться за помощью к их бывшему врагу - Тедди Сандерсу.
  • Видео данные: MPEG-4 AVC, 2366 Кбит/с, 1024x426
    Аудио данные: Русский (AC3, 6 ch, 384 Кбит/с), английский (АС3, 6 ch, 448 Кбит/с)
    Перевод: Дубляж - [iTunes]
    Продолжительность: 01:32:23
    Субтитры: английские (FULL), английские (SDH)
  • Соседи. На тропе войны 2 (2016) BDRip-AVC | iTunes Соседи. На тропе войны 2 (2016) BDRip-AVC | iTunes Соседи. На тропе войны 2 (2016) BDRip-AVC | iTunes
  • General
    Unique ID : 198762210850963024218925546530721622727 (0x9588359935BDA3738E43EB9F57E9EAC7)
    Название : D:\download\Neighbors.2.Sorority.Rising.2016.BDRip-AVC by schultz R.G.Resident.mkv
    Формат : Matroska
    Формат version : Version 4 / Version 2
    Размер файла : 2.07 GiB
    Длительность : 1 h 32 min
    Общий Битрейт : 3 200 kb/s
    Encoded date : UTC 2016-08-23 22:13:48
    Создано приложением : mkvmerge v8.9.0 ('Father Daughter') 64bit
    Writing library : libebml v1.3.3 + libmatroska v1.4.4

    Video
    ID : 1
    Формат : AVC
    Формат/Info : Advanced Video Кодек
    Формат profile : High@L4.1
    Формат настройки, CABAC : Yes
    Формат настройки, ReFrames : 11 frames
    Кодек ID : V_MPEG4/ISO/AVC
    Длительность : 1 h 32 min
    Битрейт : 2 366 kb/s
    Width : 1 024 пикселей
    Высота : 426 пикселей
    Соотношение кадра : 2.40:1
    Частота кадров mode : Constant
    Частота кадров : 23.976 (23976/1000) FPS
    Цветопередача : YUV
    Chroma subsampling : 4:2:0
    Разрядность : 8 bits
    Тип сканирования : Progressive
    Bits/(Pixel*Frame) : 0.226
    Размер потока : 1.53 GiB (74%)
    Writing library : x264 core 130 r2273 b3065e6
    Encoding настройки : cabac=1 / ref=11 / deblock=1:-3:-3 / analyse=0x3:0x113 / me=umh / subme=11 / psy=1 / psy_rd=1.00:0.00 / mixed_ref=1 / me_range=32 / chroma_me=1 / trellis=2 / 8x8dct=1 / cqm=0 / deadzone=21,11 / fast_pskip=0 / chroma_qp_offset=-2 / threads=12 / lookahead_threads=3 / sliced_threads=0 / nr=0 / decimate=0 / interlaced=0 / bluray_compat=0 / constrained_intra=0 / bframes=12 / b_pyramid=2 / b_adapt=2 / b_bias=0 / direct=3 / weightb=1 / open_gop=0 / weightp=2 / keyint=240 / keyint_min=23 / scenecut=40 / intra_refresh=0 / rc_lookahead=40 / rc=2pass / mbtree=1 / bitrate=2366 / ratetol=1.0 / qcomp=0.60 / qpmin=0 / qpmax=69 / qpstep=4 / cplxblur=20.0 / qblur=0.5 / ip_ratio=1.40 / aq=1:1.00
    Язык : English
    Default : Yes
    Forced : No

    Audio #1
    ID : 2
    Формат : AC-3
    Формат/Info : Audio Coding 3
    Расширение режима : CM (complete main)
    Формат настройки, Endianness : Big
    Кодек ID : A_AC3
    Длительность : 1 h 32 min
    Битрейт mode : Constant
    Битрейт : 384 kb/s
    Channel(s) : 6 каналов
    Channel positions : Front: L C R, Side: L R, LFE
    Частота : 48.0 kHz
    Частота кадров : 31.250 FPS (1536 spf)
    Режим сжатия : Lossy
    Размер потока : 254 MiB (12%)
    Язык : Russian
    Default : Yes
    Forced : No

    Audio #2
    ID : 3
    Формат : AC-3
    Формат/Info : Audio Coding 3
    Расширение режима : CM (complete main)
    Формат настройки, Endianness : Big
    Кодек ID : A_AC3
    Длительность : 1 h 32 min
    Битрейт mode : Constant
    Битрейт : 448 kb/s
    Channel(s) : 6 каналов
    Channel positions : Front: L C R, Side: L R, LFE
    Частота : 48.0 kHz
    Частота кадров : 31.250 FPS (1536 spf)
    Режим сжатия : Lossy
    Размер потока : 296 MiB (14%)
    Язык : English
    Default : No
    Forced : No

    Text #1
    ID : 4
    Формат : UTF-8
    Кодек ID : S_TEXT/UTF8
    Кодек ID/Info : UTF-8 Plain Text
    Длительность : 1 h 25 min
    Битрейт : 101 b/s
    Count of elements : 2127
    Размер потока : 63.3 KiB (0%)
    Title : full
    Язык : English
    Default : No
    Forced : No

    Text #2
    ID : 5
    Формат : UTF-8
    Кодек ID : S_TEXT/UTF8
    Кодек ID/Info : UTF-8 Plain Text
    Длительность : 1 h 25 min
    Битрейт : 109 b/s
    Count of elements : 2267
    Размер потока : 68.4 KiB (0%)
    Title : SDH
    Язык : English
    Default : No
    Forced : No

    Menu
    00:00:00.000 : en:00:00:00.000
    00:06:30.890 : en:00:06:30.890
    00:09:50.381 : en:00:09:50.381
    00:13:05.535 : en:00:13:05.535
    00:17:37.890 : en:00:17:37.890
    00:22:13.082 : en:00:22:13.082
    00:27:34.278 : en:00:27:34.278
    00:31:54.454 : en:00:31:54.454
    00:38:36.022 : en:00:38:36.022
    00:44:43.222 : en:00:44:43.222
    00:50:42.039 : en:00:50:42.039
    00:54:32.811 : en:00:54:32.811
    01:00:54.609 : en:01:00:54.609
    01:04:14.684 : en:01:04:14.684
    01:08:26.644 : en:01:08:26.644
    01:12:54.370 : en:01:12:54.370
    01:16:34.423 : en:01:16:34.423
    01:20:45.215 : en:01:20:45.215
    01:23:18.994 : en:01:23:18.994
    01:26:03.700 : en:01:26:03.700
5.7 из 10
голосов: 3
/10
/10
schultz 24-08-2016, 02:07
Информация
Посетители, находящиеся в группе Гости, не могут оставлять комментарии к данной публикации.