Панель пользователя
Регистрация

Воспользуйтесь социальными сетями для входа на https://freerutor.com

vk odnoklassniki facebook mailru yandex google
Популярное
Счетчик
Голосуй за нас
VIP на сайте
Популярное
Товары интернет магазина
загрузка...

Наш бренд - кризис (2015) НDRip | Дольский

Наш бренд - кризис (2015) НDRip | Дольский
Участники торрент обмена
Сидов Пиров Скачали
1 0 136
Характеристика
Размер Файлы
2.19 GB
Релиз группа
Поделиться раздачей
Фильмы (HDRip,WEB-DLRip)
Наименование: Наш бренд – кризис
Оригинальное наименование: Our Brand Is Crisis
Произведено: США
Категория: драма, комедия
Режиссер постановщик: Дэвид Гордон Грин
В главных ролях: Сандра Буллок, Билли Боб Торнтон, Энтони Маки, Жоаким ди Алмейда, Энн Дауд, Скут МакНэри, Зои Казан, Стивен Флорес, Рейнальдо Пачеко, Луис Арселла
Краткое описание: Фильм, основанный на документальных съемках, покажет изнанку избирательной кампании 2002 года, когда кандидат в президенты Боливии Гонсало Санчес де Лосада нанял политтехнологов из консалтинговой фирмы Greenberg Quinlan Rosner, чтобы прийти к победе.
  • Видео данные: XviD, 1999 Кбит/с, 720x400
    Аудио данные: Русский, английский (AC3, 6 ch, 448 Кбит/с)
    Перевод: Авторский [А. Дольский]
    Продолжительность: 01:47:31
  • Наш бренд - кризис (2015) НDRip | Дольский Наш бренд - кризис (2015) НDRip | Дольский Наш бренд - кризис (2015) НDRip | Дольский
  • Общее
    Полное имя : E:\Раздача-BDRip\Nash Brend-Krizis. 2015. HDRip_Rip_by_grab777.avi
    Формат : AVI
    Формат/Информация : Audio Video Interleave
    Профиль формата : OpenDML
    Размер файла : 2,19 Гбайт
    Продолжительность : 1 ч. 47 м.
    Общий поток : 2910 Кбит/сек
    Название фильма : Our Brand Is Crisis. 2015
    Программа кодирования : XviD4PSP 6.0 / 54.29.105

    Видео
    Идентификатор : 0
    Формат : MPEG-4 Visual
    Профиль формата : Simple@L3
    Параметр BVOP формата : Нет
    Параметр QPel формата : Нет
    Параметр GMC формата : Без точки перехода
    Параметр матрицы формата : Default (H.263)
    Идентификатор кодека : XVID
    Идентификатор кодека/Подсказка : XviD
    Продолжительность : 1 ч. 47 м.
    Битрейт : 1999 Кбит/сек
    Ширина : 720 пикселей
    Высота : 400 пикселей
    Соотношение сторон : 16:9
    Частота кадров : 23,976 кадра/сек
    Цветовое пространство : YUV
    Субдискретизация насыщенности : 4:2:0
    Битовая глубина : 8 бит
    Тип развёртки : Прогрессивная
    Метод сжатия : С потерями
    Бит/(Пиксели*Кадры) : 0.289
    Размер потока : 1,50 Гбайт (69%)
    Заголовок : Our Brand Is Crisis. 2015. BDRip 1080p - ylnian
    Библиотека кодирования : XviD 64

    Аудио #1
    Идентификатор : 1
    Формат : AC-3
    Формат/Информация : Audio Coding 3
    Расширение режима : CM (complete main)
    Параметр Endianness формата : Big
    Идентификатор кодека : 2000
    Продолжительность : 1 ч. 47 м.
    Вид битрейта : Постоянный
    Битрейт : 448 Кбит/сек
    Каналы : 6 каналов
    Расположение каналов : Front: L C R, Side: L R, LFE
    Частота : 48,0 КГц
    Битовая глубина : 16 бит
    Метод сжатия : С потерями
    Размер потока : 345 Мбайт (15%)
    Выравнивание : Соединение по промежуткам
    Продолжительность промежутка : 32 мс. (0,77 видеокадр)
    Заголовок : Дольский

    Аудио #2
    Идентификатор : 2
    Формат : AC-3
    Формат/Информация : Audio Coding 3
    Расширение режима : CM (complete main)
    Параметр Endianness формата : Big
    Идентификатор кодека : 2000
    Продолжительность : 1 ч. 47 м.
    Вид битрейта : Постоянный
    Битрейт : 448 Кбит/сек
    Каналы : 6 каналов
    Расположение каналов : Front: L C R, Side: L R, LFE
    Частота : 48,0 КГц
    Битовая глубина : 16 бит
    Метод сжатия : С потерями
    Размер потока : 345 Мбайт (15%)
    Выравнивание : Соединение по промежуткам
    Продолжительность промежутка : 32 мс. (0,77 видеокадр)

10.0 из 10
голосов: 2
/10
/10
grab777 21-08-2016, 17:43

minimal005 | 25-08-2016, 10:38 | Статус: Оффлайн

озвучка какая?
Информация
Посетители, находящиеся в группе Гости, не могут оставлять комментарии к данной публикации.