Панель пользователя
Регистрация

Воспользуйтесь социальными сетями для входа на https://freerutor.com

vk odnoklassniki facebook mailru yandex google
Популярное
Счетчик
Голосуй за нас
VIP на сайте
Популярное
Товары интернет магазина
загрузка...

Наш бренд – кризис (2015) HDRip-AVC | Дольский

Наш бренд – кризис (2015) HDRip-AVC | Дольский
Участники торрент обмена
Сидов Пиров Скачали
4 0 234
Характеристика
Размер Файлы
2.46 GB
Поделиться раздачей
Фильмы (AVC)
Наименование: Наш бренд – кризис
Оригинальное наименование: Our Brand Is Crisis
Произведено: США / Participant Media, Smokehouse Pictures
Категория: Драма, комедия
Режиссер постановщик: Дэвид Гордон Грин
В главных ролях: Сандра Буллок, Билли Боб Торнтон, Энтони Маки, Жоаким ди Алмейда, Энн Дауд, Скут МакНэри, Зои Казан, Стивен Флорес, Рейнальдо Пачеко, Луис Арселла
Краткое описание: Фильм, основанный на документальных съемках, покажет изнанку избирательной кампании 2002 года, когда кандидат в президенты Боливии Гонсало Санчес де Лосада нанял политтехнологов из консалтинговой фирмы Greenberg Quinlan Rosner, чтобы прийти к победе.
  • Видео данные: MPEG-4 AVC, 2500 Кбит/с, 1024x576
    Аудио данные: Русский, английский (AC3, 6 ch, 384 Кбит/с)
    Перевод: Авторский [А. Дольский]
    Продолжительность: 01:47:31
  • Наш бренд – кризис (2015) HDRip-AVC | Дольский Наш бренд – кризис (2015) HDRip-AVC | Дольский Наш бренд – кризис (2015) HDRip-AVC | Дольский
  • Общее
    Уникальный идентификатор : 203887591850078002622083123829126222651 (0x9963526452AD371EBADDA07C33A8533B)
    Полное имя : E:Раздача-BDRipNash. Brend.2015.HDRip-AVC.mkv
    Формат : Matroska
    Версия формата : Version 2
    Размер файла : 2,46 Гбайт
    Продолжительность : 1 ч. 47 м.
    Общий поток : 3270 Кбит/сек
    Название фильма : Наш бренд – кризис / Our Brand Is Crisis.2015.HDRip-AVC
    Дата кодирования : UTC 2016-01-24 15:29:43
    Программа кодирования : mkvmerge v5.8.0 ('No Sleep / Pillow') built on Sep 2 2012 15:37:04
    Библиотека кодирования : libebml v1.2.3 + libmatroska v1.3.0

    Видео
    Идентификатор : 1
    Формат : AVC
    Формат/Информация : Advanced Video Codec
    Профиль формата : High@L4.1
    Параметр CABAC формата : Да
    Параметр ReFrames формата : 4 кадра
    Идентификатор кодека : V_MPEG4/ISO/AVC
    Продолжительность : 1 ч. 47 м.
    Битрейт : 2500 Кбит/сек
    Ширина : 1024 пикселя
    Высота : 576 пикселей
    Соотношение сторон : 16:9
    Режим частоты кадров : Постоянный
    Частота кадров : 23,976 кадра/сек
    Цветовое пространство : YUV
    Субдискретизация насыщенности : 4:2:0
    Битовая глубина : 8 бит
    Тип развёртки : Прогрессивная
    Бит/(Пиксели*Кадры) : 0.177
    Размер потока : 1,83 Гбайт (75%)
    Библиотека кодирования : x264 core 146 r2538 121396c
    Настройки программы : cabac=1 / ref=3 / deblock=1:-3:-3 / analyse=0x3:0x113 / me=umh / subme=6 / psy=1 / psy_rd=1.00:0.00 / mixed_ref=1 / me_range=16 / chroma_me=1 / trellis=2 / 8x8dct=1 / cqm=0 / deadzone=21,11 / fast_pskip=1 / chroma_qp_offset=-2 / threads=9 / lookahead_threads=1 / sliced_threads=0 / nr=0 / decimate=1 / interlaced=0 / bluray_compat=0 / constrained_intra=0 / bframes=3 / b_pyramid=2 / b_adapt=1 / b_bias=0 / direct=1 / weightb=1 / open_gop=0 / weightp=2 / keyint=250 / keyint_min=23 / scenecut=40 / intra_refresh=0 / rc_lookahead=40 / rc=2pass / mbtree=1 / bitrate=2500 / ratetol=1.0 / qcomp=0.60 / qpmin=0 / qpmax=69 / qpstep=4 / cplxblur=20.0 / qblur=0.5 / ip_ratio=1.40 / aq=1:1.00
    Язык : English
    Default : Да
    Forced : Нет

    Аудио #1
    Идентификатор : 2
    Формат : AC-3
    Формат/Информация : Audio Coding 3
    Расширение режима : CM (complete main)
    Параметр Endianness формата : Big
    Идентификатор кодека : A_AC3
    Продолжительность : 1 ч. 47 м.
    Вид битрейта : Постоянный
    Битрейт : 384 Кбит/сек
    Каналы : 6 каналов
    Расположение каналов : Front: L C R, Side: L R, LFE
    Частота : 48,0 КГц
    Битовая глубина : 16 бит
    Метод сжатия : С потерями
    Размер потока : 295 Мбайт (12%)
    Заголовок : AVO (А. Дольский)
    Язык : Russian
    Default : Да
    Forced : Нет

    Аудио #2
    Идентификатор : 3
    Формат : AC-3
    Формат/Информация : Audio Coding 3
    Расширение режима : CM (complete main)
    Параметр Endianness формата : Big
    Идентификатор кодека : A_AC3
    Продолжительность : 1 ч. 47 м.
    Вид битрейта : Постоянный
    Битрейт : 384 Кбит/сек
    Каналы : 6 каналов
    Расположение каналов : Front: L C R, Side: L R, LFE
    Частота : 48,0 КГц
    Битовая глубина : 16 бит
    Метод сжатия : С потерями
    Размер потока : 295 Мбайт (12%)
    Заголовок : Original
    Язык : English
    Default : Нет
    Forced : Нет
10.0 из 10
голосов: 3
/10
/10
grab777 21-08-2016, 14:33
Информация
Посетители, находящиеся в группе Гости, не могут оставлять комментарии к данной публикации.