Панель пользователя
Регистрация

Воспользуйтесь социальными сетями для входа на https://freerutor.com

vk odnoklassniki facebook mailru yandex google
Популярное
Счетчик
Голосуй за нас
VIP на сайте
Популярное
Товары интернет магазина
загрузка...

Полтора шпиона (2016) BDRip 1080p | Лицензия

Полтора шпиона (2016)  BDRip 1080p | Лицензия
Участники торрент обмена
Сидов Пиров Скачали
26 5 1090
Характеристика
Размер Файлы
13.23 GB
Релиз группа
Поделиться раздачей
Фильмы (720,1080,Blu-Ray)
Название: Полтора шпиона
Оригинальное название: Central Intelligence
Жанр: комедия, криминал
Выпущено: США / New Line Cinema, Universal Pictures
Режиссер постановщик: Роусон Маршалл Тёрбер
В главных ролях: Дуэйн Джонсон, Аарон Пол, Кевин Харт, Эми Райан, Райан Хансен, Меган Парк, Бретт Азар, Даниэль Николет, Кристен Аннэс, Шанти Спиллейн
Краткое описание: От лайка в соцсети до спасения мира - один шаг. Сегодня ты френдишь бывшего одноклассника, а завтра - он тащит тебя под пули. Кто ж знал, что заядлый любитель пончиков превратится в похожего на скалу супершпиона.
  • Видео данные: MPEG-4 AVC, 15 Mбит/с, 1920x800
    Аудио данные: Русский (DTS, 6 ch, 768 Кбит/с), украинский (AC3, 2 ch, 128 Кбит/с), английский (DTS, 6 ch, 1510 Кбит/с; AC3, 2 ch, 192 Кбит/с)
    Перевод: Дублированный (Лицензия)
    Субтитры: Russian (Forced, iTunes), Russian (iTunes), Ukrainian (Forced, iTunes), Ukrainian (iTunes), English (SDH, iTunes)
    Продолжительность: 01:47:31
  • Полтора шпиона (2016)  BDRip 1080p | Лицензия Полтора шпиона (2016)  BDRip 1080p | Лицензия Полтора шпиона (2016)  BDRip 1080p | Лицензия
  • Aудио#1: Russian: 48 kHz, DTS, 3/2 (L,C,R,l,r) + LFE ch, ~768 kbps avg |Дубляж, Blu-ray CEE|
    Aудио#2: Ukrainian: 44.1 kHz, AC3, 2/0 (L,R) ch, ~128 kbps avg |Дубляж, iTunes|
    Aудио#3: English: 48 kHz, DTS, 3/2 (L,C,R,l,r) + LFE ch, ~1509 kbps avg
    Aудио#4: English: 48 kHz, AC3, 2/0 (L,R) ch, ~192 kbps avg |Feature Commentary with Co-Writer/Director Rawson Marshall Thurber and Co-editor Mike Sale|

    MI
    Общее
    Уникальный идентификатор : 202901394166722452496183339940424345280 (0x98A563179144CB66969C5D2CBC6266C0)
    Полное имя : Central.Intelligence.THEATRiCAL.2016.1080p.BluRay.DTS.Rus.Ukr.2xEng.HDCLUB.mkv
    Формат : Matroska
    Версия формата : Version 2
    Размер файла : 13,2 Гбайт
    Продолжительность : 1 ч. 47 м.
    Общий поток : 17,6 Мбит/сек
    Название фильма : Central Intelligence (2016) - Release for HDCLUB
    Дата кодирования : UTC 2016-10-04 14:07:50
    Программа кодирования : mkvmerge v3.4.0 ('Rapunzel') built on May 15 2010 09:38:20
    Библиотека кодирования : libebml v0.8.0 + libmatroska v0.9.0

    Видео
    Идентификатор : 1
    Формат : AVC
    Формат/Информация : Advanced Video Codec
    Профиль формата : High@L4.1
    Параметр CABAC формата : Да
    Параметр ReFrames формата : 5 кадров
    Идентификатор кодека : V_MPEG4/ISO/AVC
    Продолжительность : 1 ч. 47 м.
    Номинальный битрейт : 15,0 Мбит/сек
    Ширина : 1920 пикселей
    Высота : 800 пикселей
    Соотношение сторон : 2,40:1
    Режим частоты кадров : Постоянный
    Частота кадров : 23,976 кадра/сек
    Цветовое пространство : YUV
    Субдискретизация насыщенности : 4:2:0
    Битовая глубина : 8 бит
    Тип развёртки : Прогрессивная
    Бит/(Пиксели*Кадры) : 0.407
    Заголовок : Central Intelligence (2016) - Release for HDCLUB
    Библиотека кодирования : x264 core 148 r2705 3f5ed56
    Настройки программы : cabac=1 / ref=5 / deblock=1:-3:-3 / analyse=0x3:0x133 / me=umh / subme=11 / psy=1 / psy_rd=1.00:0.00 / mixed_ref=1 / me_range=32 / chroma_me=1 / trellis=2 / 8x8dct=1 / cqm=0 / deadzone=21,11 / fast_pskip=0 / chroma_qp_offset=-2 / threads=18 / lookahead_threads=3 / sliced_threads=0 / slices=4 / nr=0 / decimate=0 / interlaced=0 / bluray_compat=0 / constrained_intra=0 / bframes=8 / b_pyramid=2 / b_adapt=2 / b_bias=0 / direct=3 / weightb=1 / open_gop=0 / weightp=2 / keyint=250 / keyint_min=23 / scenecut=40 / intra_refresh=0 / rc_lookahead=40 / rc=2pass / mbtree=0 / bitrate=15000 / ratetol=1.0 / qcomp=0.65 / qpmin=0 / qpmax=51 / qpstep=4 / cplxblur=20.0 / qblur=0.5 / vbv_maxrate=62500 / vbv_bufsize=78125 / nal_hrd=none / filler=0 / ip_ratio=1.40 / pb_ratio=1.30 / aq=3:0.75 / zones=580,1505,b=2/7519,8238,b=1.3/19077,31367,b=1.3/38327,40117,b=1.3/42611,43903,b=1.3/73564,74041,b=1.3/106195,128278,b=1.3/131302,140347,b=1.3
    Язык : English
    Default : Да
    Forced : Нет

    Аудио #1
    Идентификатор : 2
    Формат : DTS
    Формат/Информация : Digital Theater Systems
    Режим : 16
    Параметр Endianness формата : Big
    Идентификатор кодека : A_DTS
    Продолжительность : 1 ч. 47 м.
    Вид битрейта : Постоянный
    Битрейт : 768 Кбит/сек
    Каналы : 6 каналов
    Расположение каналов : Front: L C R, Side: L R, LFE
    Частота : 48,0 КГц
    Битовая глубина : 24 бит
    Метод сжатия : С потерями
    Размер потока : 591 Мбайт (4%)
    Заголовок : DTS 5.1 @ 768 kbps - DUB, Blu-ray CEE
    Язык : Russian
    Default : Да
    Forced : Нет

    Аудио #2
    Идентификатор : 3
    Формат : AAC
    Формат/Информация : Advanced Audio Codec
    Профиль формата : HE-AAC / LC
    Идентификатор кодека : A_AAC
    Продолжительность : 1 ч. 47 м.
    Каналы : 2 канала
    Расположение каналов : Front: L R
    Частота : 88,2 КГц / 44,1 КГц
    Метод сжатия : С потерями
    Задержка видео : 170 мс.
    Заголовок : AAC 2.0 @ 128 kbps - DUB, iTunes
    Язык : Ukrainian
    Default : Нет
    Forced : Нет

    Аудио #3
    Идентификатор : 4
    Формат : DTS
    Формат/Информация : Digital Theater Systems
    Режим : 16
    Параметр Endianness формата : Big
    Идентификатор кодека : A_DTS
    Продолжительность : 1 ч. 47 м.
    Вид битрейта : Постоянный
    Битрейт : 1509 Кбит/сек
    Каналы : 6 каналов
    Расположение каналов : Front: L C R, Side: L R, LFE
    Частота : 48,0 КГц
    Битовая глубина : 24 бит
    Метод сжатия : С потерями
    Задержка видео : 11 мс.
    Размер потока : 1,13 Гбайт (9%)
    Заголовок : DTS 5.1 @ 1536 kbps
    Язык : English
    Default : Нет
    Forced : Нет

    Аудио #4
    Идентификатор : 5
    Формат : AC-3
    Формат/Информация : Audio Coding 3
    Профиль формата : Dolby Digital
    Расширение режима : CM (complete main)
    Параметр Endianness формата : Big
    Идентификатор кодека : A_AC3
    Продолжительность : 1 ч. 47 м.
    Вид битрейта : Постоянный
    Битрейт : 192 Кбит/сек
    Каналы : 2 канала
    Расположение каналов : Front: L R
    Частота : 48,0 КГц
    Битовая глубина : 16 бит
    Метод сжатия : С потерями
    Размер потока : 148 Мбайт (1%)
    Заголовок : AC3 2.0 @ 192 kbps - Feature Commentary with Co-Writer/Director Rawson Marshall Thurber and Co-editor Mike Sale
    Язык : English
    Default : Нет
    Forced : Нет

    Текст #1
    Идентификатор : 6
    Формат : UTF-8
    Идентификатор кодека : S_TEXT/UTF8
    Идентификатор кодека/Информация : UTF-8 Plain Text
    Заголовок : Forced, iTunes
    Язык : Russian
    Default : Да
    Forced : Нет

    Текст #2
    Идентификатор : 7
    Формат : UTF-8
    Идентификатор кодека : S_TEXT/UTF8
    Идентификатор кодека/Информация : UTF-8 Plain Text
    Заголовок : iTunes
    Язык : Russian
    Default : Нет
    Forced : Нет

    Текст #3
    Идентификатор : 8
    Формат : UTF-8
    Идентификатор кодека : S_TEXT/UTF8
    Идентификатор кодека/Информация : UTF-8 Plain Text
    Заголовок : Forced, iTunes
    Язык : Ukrainian
    Default : Нет
    Forced : Нет

    Текст #4
    Идентификатор : 9
    Формат : UTF-8
    Идентификатор кодека : S_TEXT/UTF8
    Идентификатор кодека/Информация : UTF-8 Plain Text
    Заголовок : iTunes
    Язык : Ukrainian
    Default : Нет
    Forced : Нет

    Текст #5
    Идентификатор : 10
    Формат : UTF-8
    Идентификатор кодека : S_TEXT/UTF8
    Идентификатор кодека/Информация : UTF-8 Plain Text
    Заголовок : SDH, iTunes
    Язык : English
    Default : Нет
    Forced : Нет

    Меню
    00:00:00.000 : en:1
    00:09:12.051 : en:2
    00:20:11.752 : en:3
    00:30:31.079 : en:4
    00:43:21.766 : en:5
    00:52:42.492 : en:6
    00:58:09.861 : en:7
    01:10:12.458 : en:8
    01:18:36.753 : en:9
    01:28:56.289 : en:10
    01:39:32.257 : en:11
10.0 из 10
голосов: 11
/10
/10
bond74 4-10-2016, 19:23
Информация
Посетители, находящиеся в группе Гости, не могут оставлять комментарии к данной публикации.