Панель пользователя
Регистрация

Воспользуйтесь социальными сетями для входа на https://freerutor.com

vk odnoklassniki facebook mailru yandex google
Популярное
Счетчик
Голосуй за нас
VIP на сайте
Популярное
Товары интернет магазина
загрузка...

Книга джунглей (2016) BDRip-AVC | Лицензия

Книга джунглей (2016) BDRip-AVC | Лицензия
Участники торрент обмена
Сидов Пиров Скачали
45 0 4775
Характеристика
Размер Файлы
2.72 GB
Релиз группа
Поделиться раздачей
Фильмы (AVC)
Наименование: Книга джунглей
Оригинальное наименование: The Jungle Book
Категория: Фэнтези, драма, приключения, семейный
Произведено: США
Режиссер постановщик: Джон Фавро
В главных ролях: Нил Сетхи, Билл Мюррей, Бен Кингсли, Идрис Эльба, Лупита Нионго, Скарлетт Йоханссон, Джанкарло Эспозито, Кристофер Уокен, Гарри Шендлинг, Брайтон Роуз
Краткое описание: Это не просто история найденыша, ставшего волчонком и равным среди животных. Это история любви, преданности, смелости, история ученичества и наставничества, когда учитель жизнью отвечает за умения ученика. Ведь Маугли - детеныш человека, а значит, слабее любого щенка. И мудрым учителям: приютившим «лягушонка» волкам, Багире, Балу и Каа, нужно научить своего подопечного выживать в безумно богатых на опасности джунглях, а главное - уберечь от Шерхана, возненавидевшего нового обитателя с момента его появления.
  • Видео данные: MPEG-4 AVC, 2400 Кбит/с, 1024x552
    Аудио данные: Русский (AC3, 6 ch, 384 Кбит/с), украинский (АС3, 6 ch, 448 Кбит/с), английский (АС3, 6 ch, 448 Кбит/с)
    Перевод: Дубляж - [iTunes]
    Продолжительность: 01:45:55
    Субтитры: русские ( FORCED, FULL), английские (FULL, SDH)
  • Книга джунглей (2016) BDRip-AVC | Лицензия Книга джунглей (2016) BDRip-AVC | Лицензия Книга джунглей (2016) BDRip-AVC | Лицензия
  • Общее
    Уникальный идентификатор : 190878701712552052012179322445502062748 (0x8F99E696B9DB7584AF413FD32197A09C)
    Полное имя : D:\download\The.Jungle.Book.2016.BDRip-AVC by schultz R.G.Resident.mkv
    Формат : Matroska
    Версия формата : Version 4 / Version 2
    Размер файла : 2,72 Гбайт
    Продолжительность : 1 ч. 46 м.
    Общий поток : 3674 Кбит/сек
    Дата кодирования : UTC 2016-08-12 03:22:46
    Программа кодирования : mkvmerge v6.7.0 ('Back to the Ground') 64bit built on Jan 8 2014 15:10:52
    Библиотека кодирования : libebml v1.3.0 + libmatroska v1.4.1

    Видео
    Идентификатор : 1
    Формат : AVC
    Формат/Информация : Advanced Video Codec
    Профиль формата : High@L4.1
    Параметр CABAC формата : Да
    Параметр ReFrames формата : 12 кадров
    Идентификатор кодека : V_MPEG4/ISO/AVC
    Продолжительность : 1 ч. 46 м.
    Битрейт : 2400 Кбит/сек
    Ширина : 1024 пикселя
    Высота : 552 пикселя
    Соотношение сторон : 1,85:1
    Режим частоты кадров : Постоянный
    Частота кадров : 23,976 кадра/сек
    Цветовое пространство : YUV
    Субдискретизация насыщенности : 4:2:0
    Битовая глубина : 8 бит
    Тип развёртки : Прогрессивная
    Бит/(Пиксели*Кадры) : 0.177
    Размер потока : 1,72 Гбайт (63%)
    Библиотека кодирования : x264 core 146 r2538 121396c
    Настройки программы : cabac=1 / ref=12 / deblock=1:-3:-3 / analyse=0x3:0x113 / me=umh / subme=11 / psy=1 / psy_rd=1.00:0.00 / mixed_ref=1 / me_range=48 / chroma_me=1 / trellis=2 / 8x8dct=1 / cqm=0 / deadzone=21,11 / fast_pskip=0 / chroma_qp_offset=-2 / threads=12 / lookahead_threads=3 / sliced_threads=0 / nr=0 / decimate=0 / interlaced=0 / bluray_compat=0 / constrained_intra=0 / bframes=13 / b_pyramid=2 / b_adapt=2 / b_bias=0 / direct=3 / weightb=1 / open_gop=0 / weightp=2 / keyint=240 / keyint_min=23 / scenecut=40 / intra_refresh=0 / rc_lookahead=40 / rc=2pass / mbtree=1 / bitrate=2400 / ratetol=1.0 / qcomp=0.60 / qpmin=0 / qpmax=69 / qpstep=4 / cplxblur=20.0 / qblur=0.5 / vbv_maxrate=14000 / vbv_bufsize=14000 / nal_hrd=none / filler=0 / ip_ratio=1.40 / aq=1:1.00
    Язык : English
    Default : Да
    Forced : Нет

    Аудио #1
    Идентификатор : 2
    Формат : AC-3
    Формат/Информация : Audio Coding 3
    Расширение режима : CM (complete main)
    Параметр Endianness формата : Big
    Идентификатор кодека : A_AC3
    Продолжительность : 1 ч. 46 м.
    Вид битрейта : Постоянный
    Битрейт : 384 Кбит/сек
    Каналы : 6 каналов
    Расположение каналов : Front: L C R, Side: L R, LFE
    Частота : 48,0 КГц
    Битовая глубина : 16 бит
    Метод сжатия : С потерями
    Размер потока : 292 Мбайт (10%)
    Язык : Russian
    Default : Да
    Forced : Нет

    Аудио #2
    Идентификатор : 7
    Формат : AC-3
    Формат/Информация : Audio Coding 3
    Расширение режима : CM (complete main)
    Параметр Endianness формата : Big
    Идентификатор кодека : A_AC3
    Продолжительность : 1 ч. 46 м.
    Вид битрейта : Постоянный
    Битрейт : 448 Кбит/сек
    Каналы : 6 каналов
    Расположение каналов : Front: L C R, Side: L R, LFE
    Частота : 48,0 КГц
    Битовая глубина : 16 бит
    Метод сжатия : С потерями
    Размер потока : 340 Мбайт (12%)
    Язык : Ukrainian
    Default : Нет
    Forced : Нет

    Аудио #3
    Идентификатор : 8
    Формат : AC-3
    Формат/Информация : Audio Coding 3
    Расширение режима : CM (complete main)
    Параметр Endianness формата : Big
    Идентификатор кодека : A_AC3
    Продолжительность : 1 ч. 46 м.
    Вид битрейта : Постоянный
    Битрейт : 448 Кбит/сек
    Каналы : 6 каналов
    Расположение каналов : Front: L C R, Side: L R, LFE
    Частота : 48,0 КГц
    Битовая глубина : 16 бит
    Метод сжатия : С потерями
    Размер потока : 340 Мбайт (12%)
    Язык : English
    Default : Нет
    Forced : Нет

    Текст #1
    Идентификатор : 3
    Формат : UTF-8
    Идентификатор кодека : S_TEXT/UTF8
    Идентификатор кодека/Информация : UTF-8 Plain Text
    Заголовок : forced
    Язык : Russian
    Default : Да
    Forced : Нет

    Текст #2
    Идентификатор : 4
    Формат : UTF-8
    Идентификатор кодека : S_TEXT/UTF8
    Идентификатор кодека/Информация : UTF-8 Plain Text
    Заголовок : full
    Язык : Russian
    Default : Нет
    Forced : Нет

    Текст #3
    Идентификатор : 5
    Формат : UTF-8
    Идентификатор кодека : S_TEXT/UTF8
    Идентификатор кодека/Информация : UTF-8 Plain Text
    Заголовок : full
    Язык : English
    Default : Нет
    Forced : Нет

    Текст #4
    Идентификатор : 6
    Формат : UTF-8
    Идентификатор кодека : S_TEXT/UTF8
    Идентификатор кодека/Информация : UTF-8 Plain Text
    Заголовок : SDH
    Язык : English
    Default : Нет
    Forced : Нет

    Меню
    00:00:00.000 : en:00:00:00.000
    00:00:48.215 : en:00:00:48.215
    00:05:15.315 : en:00:05:15.315
    00:09:02.459 : en:00:09:02.459
    00:12:42.178 : en:00:12:42.178
    00:16:34.452 : en:00:16:34.452
    00:21:20.029 : en:00:21:20.029
    00:27:15.133 : en:00:27:15.133
    00:35:04.144 : en:00:35:04.144
    00:43:21.724 : en:00:43:21.724
    00:48:05.132 : en:00:48:05.132
    00:53:29.248 : en:00:53:29.248
    00:58:03.271 : en:00:58:03.271
    01:05:46.442 : en:01:05:46.442
    01:10:35.523 : en:01:10:35.523
    01:17:01.325 : en:01:17:01.325
    01:20:48.927 : en:01:20:48.927
    01:24:46.540 : en:01:24:46.540
    01:30:32.969 : en:01:30:32.969
    01:35:53.206 : en:01:35:53.206
10.0 из 10
голосов: 5
/10
/10
schultz 12-08-2016, 10:43

sergy2000 | 12-11-2016, 18:46 | Статус: Оффлайн

пиздец дерьмище
Информация
Посетители, находящиеся в группе Гости, не могут оставлять комментарии к данной публикации.