Панель пользователя
Регистрация

Воспользуйтесь социальными сетями для входа на https://freerutor.com

vk odnoklassniki facebook mailru yandex google
Популярное
Счетчик
Голосуй за нас
VIP на сайте
Популярное
Товары интернет магазина
загрузка...

Славные парни (2016) BDRip-AVC | Лицензия

Славные парни (2016) BDRip-AVC | Лицензия
Участники торрент обмена
Сидов Пиров Скачали
24 0 1549
Характеристика
Размер Файлы
2.17 GB
Релиз группа
Поделиться раздачей
Фильмы (AVC)
Наименование: Славные парни
Оригинальное наименование: The Nice Guys
Категория: Криминал, комедия
Произведено: США, Великобритания
Режиссер постановщик: Шейн Блэк
В главных ролях: Райан Гослинг, Ким Бейсингер, Расселл Кроу, Энгаури Райс, Мэтт Бомер, Маргарет Куэлли, Йайа ДаКоста, Кит Дэвид, Бо Напп, Лоис Смит
Краткое описание: Что может объединить двух совершенно разных людей - частного сыщика Марчи Холланда и наёмного вышибалу Хили Джексона? Лос-Анджелес 1970 год. Два, кажется несвязанных между собой дела, которые взялись расследовать эти разные по профессиям и жизненным позициям человека, пропажа девушки и смерть порнозвезды. В ходе расследования нити этих дел приведут к шокирующему результату - заговор в высших эшелонах власти!
  • Видео данные: MPEG-4 AVC, 1843 Кбит/с, 1024x426
    Аудио данные: Русский (AC3, 6 ch, 384 Кбит/с), английский (АС3, 6 ch, 448 Кбит/с)
    Перевод: Дубляж - [iTunes]
    Продолжительность: 01:55:57
    Субтитры: английские (FULL)
  • Славные парни (2016) BDRip-AVC | Лицензия Славные парни (2016) BDRip-AVC | Лицензия Славные парни (2016) BDRip-AVC | Лицензия
  • Общее
    Уникальный идентификатор : 253464196098720777350088505969816225970 (0xBEAF6DB2CF10947EA0BD76D419BDC8B2)
    Полное имя : D:\download\The.Nice.Guys.2016.BDRip-AVC by schultz R.G.Resident.mkv
    Формат : Matroska
    Версия формата : Version 4 / Version 2
    Размер файла : 2,17 Гбайт
    Длительность : 1 ч. 55 м.
    Общий поток : 2676 Кбит/сек
    Дата кодирования : UTC 2016-08-11 15:15:14
    Программа кодирования : mkvmerge v6.7.0 ('Back to the Ground') 64bit built on Jan 8 2014 15:10:52
    Библиотека кодирования : libebml v1.3.0 + libmatroska v1.4.1

    Видео
    Идентификатор : 1
    Формат : AVC
    Формат/Информация : Advanced Video Кодек
    Профиль формата : High@L4.1
    Параметр CABAC формата : Да
    Параметр ReFrames формата : 12 кадров
    Идентификатор кодека : V_MPEG4/ISO/AVC
    Длительность : 1 ч. 55 м.
    Битрейт : 1843 Кбит/сек
    Ширина : 1024 пикселя
    Высота : 426 пикселей
    Соотношение сторон : 2,40:1
    Режим частоты кадров : Постоянный
    Частота кадров : 23,976 кадра/сек
    Цветовое пространство : YUV
    Субдискретизация насыщенности : 4:2:0
    Битовая глубина : 8 бит
    Тип развёртки : Прогрессивная
    Бит/(Пиксели*Кадры) : 0.176
    Размер потока : 1,45 Гбайт (67%)
    Библиотека кодирования : x264 core 146 r2538 121396c
    Настройки программы : cabac=1 / ref=12 / deblock=1:-3:-3 / analyse=0x3:0x113 / me=umh / subme=11 / psy=1 / psy_rd=1.00:0.00 / mixed_ref=1 / me_range=48 / chroma_me=1 / trellis=2 / 8x8dct=1 / cqm=0 / deadzone=21,11 / fast_pskip=0 / chroma_qp_offset=-2 / threads=12 / lookahead_threads=3 / sliced_threads=0 / nr=0 / decimate=0 / interlaced=0 / bluray_compat=0 / constrained_intra=0 / bframes=13 / b_pyramid=2 / b_adapt=2 / b_bias=0 / direct=3 / weightb=1 / open_gop=0 / weightp=2 / keyint=240 / keyint_min=23 / scenecut=40 / intra_refresh=0 / rc_lookahead=40 / rc=2pass / mbtree=1 / bitrate=1843 / ratetol=1.0 / qcomp=0.60 / qpmin=0 / qpmax=69 / qpstep=4 / cplxblur=20.0 / qblur=0.5 / vbv_maxrate=14000 / vbv_bufsize=14000 / nal_hrd=none / filler=0 / ip_ratio=1.40 / aq=1:1.00
    Язык : English
    Default : Да
    Forced : Нет

    Аудио #1
    Идентификатор : 2
    Формат : AC-3
    Формат/Информация : Audio Coding 3
    Расширение режима : CM (complete main)
    Параметр Endianness формата : Big
    Идентификатор кодека : A_AC3
    Длительность : 1 ч. 55 м.
    Вид битрейта : Постоянный
    Битрейт : 384 Кбит/сек
    Каналы : 6 каналов
    Расположение каналов : Front: L C R, Side: L R, LFE
    Частота : 48,0 КГц
    Битовая глубина : 16 бит
    Метод сжатия : С потерями
    Задержка видео : 2 с. 0 мс.
    Размер потока : 318 Мбайт (14%)
    Язык : Russian
    Default : Да
    Forced : Нет

    Аудио #2
    Идентификатор : 4
    Формат : AC-3
    Формат/Информация : Audio Coding 3
    Расширение режима : CM (complete main)
    Параметр Endianness формата : Big
    Идентификатор кодека : A_AC3
    Длительность : 1 ч. 55 м.
    Вид битрейта : Постоянный
    Битрейт : 448 Кбит/сек
    Каналы : 6 каналов
    Расположение каналов : Front: L C R, Side: L R, LFE
    Частота : 48,0 КГц
    Битовая глубина : 16 бит
    Метод сжатия : С потерями
    Размер потока : 372 Мбайт (17%)
    Default : Нет
    Forced : Нет

    Текст
    Идентификатор : 3
    Формат : UTF-8
    Идентификатор кодека : S_TEXT/UTF8
    Идентификатор кодека/Информация : UTF-8 Plain Text
    Заголовок : Full
    Язык : English
    Default : Нет
    Forced : Нет

    Меню
    00:00:00.000 : en:Chapter 01
    00:10:41.683 : en:Chapter 02
    00:21:07.308 : en:Chapter 03
    00:29:12.876 : en:Chapter 04
    00:40:12.744 : en:Chapter 05
    00:50:50.464 : en:Chapter 06
    01:01:02.033 : en:Chapter 07
    01:10:15.420 : en:Chapter 08
    01:19:59.086 : en:Chapter 09
    01:29:40.709 : en:Chapter 10
    01:40:10.338 : en:Chapter 11
    01:48:35.801 : en:Chapter 12
    01:50:49.977 : en:Chapter 13

10.0 из 10
голосов: 4
/10
/10
schultz 11-08-2016, 19:40
Информация
Посетители, находящиеся в группе Гости, не могут оставлять комментарии к данной публикации.