Панель пользователя
Регистрация

Воспользуйтесь социальными сетями для входа на https://freerutor.com

vk odnoklassniki facebook mailru yandex google
Популярное
Счетчик
Голосуй за нас
VIP на сайте
Популярное
Товары интернет магазина
загрузка...

Служанка (2016) BDRip 720p | iTunes

Служанка (2016) BDRip 720p | iTunes
Участники торрент обмена
Сидов Пиров Скачали
20 2 1070
Характеристика
Размер Файлы
5.83 GB
Поделиться раздачей
Фильмы (720,1080,Blu-Ray)
Наименование: Служанка
Оригинальное наименование: Agasshi
Произведено: Корея Южная
Категория: драма, мелодрама
Режиссер постановщик: Пак Чхан-ук
В главных ролях: Ким Мин-хи, Ким Тхэ-ри, Ха Джон-у, Чо Джин-ун, Ли Дон-хви, Ким Хэ-сук, Мун Со-ри, Ли Гю-джон, Ли Ён-нё
Краткое описание: 30-е годы прошлого столетия. Корея, оккупированная японцами. Мошенник по прозвищу Граф предлагает бедной девушке Соке поучаствовать в деле, обещая солидный заработок. План афериста следующий. В огромном поместье, не общаясь с внешним миром, живет богатая японка Хидеко. Однако ее дядя, контролирующий каждый шаг девушки, изредка устраивает приемы для местных аристократов. Граф рассчитывает очаровать Хидеко, сбежать с ней в Японию, жениться, объявить ее сумасшедшей, упечь в дурдом и завладеть всем богатством. А Соке должна ему помочь, нанявшись в услужение к Хидеко. Что она и сделала. Но внезапно идеальный замысел Графа оказался под угрозой...
  • Видео данные: MPEG-4 AVC, 4980 kb/s, 1280x536
    Аудио данные: Russian: AC3, 384 kb/s (6 ch) / Korean: AC3, 640 kb/s (6 ch)
    Перевод: Дублированный [iTunes]
    Субтитры: Китайские
    Продолжительность: 02:19:05
  • Служанка (2016) BDRip 720p | iTunes Служанка (2016) BDRip 720p | iTunes Служанка (2016) BDRip 720p | iTunes
  • Общее
    Уникальный идентификатор : 245893457730952833133066769770896939679 (0xB8FD5B7A74FF9542B618D7AAA19FDA9F)
    Полное имя : D:\загрузки\The.Handmaiden.2016.D.BDRip.72Op.mkv
    Формат : Matroska
    Версия формата : Version 2
    Размер файла : 5,83 Гбайт
    Продолжительность : 2 ч. 19 м.
    Общий поток : 6003 Кбит/сек
    Название фильма : Jubowo @ WiKi
    Дата кодирования : UTC 2016-10-28 18:10:08
    Программа кодирования : mkvmerge v8.3.0 ('Over the Horizon') 64bit
    Библиотека кодирования : libebml v1.3.1 + libmatroska v1.4.2
    DURATION : 02:19:04.096000000
    NUMBER_OF_FRAMES : 260753
    NUMBER_OF_BYTES : 400516608
    _STATISTICS_WRITING_APP : mkvmerge v8.3.0 ('Over the Horizon') 64bit
    _STATISTICS_WRITING_DATE_UTC : 2016-10-28 18:10:08
    _STATISTICS_TAGS : BPS DURATION NUMBER_OF_FRAMES NUMBER_OF_BYTES

    Видео
    Идентификатор : 1
    Формат : AVC
    Формат/Информация : Advanced Video Codec
    Профиль формата : High@L4.1
    Параметр CABAC формата : Да
    Параметр ReFrames формата : 12 кадров
    Идентификатор кодека : V_MPEG4/ISO/AVC
    Продолжительность : 2 ч. 19 м.
    Битрейт : 4980 Кбит/сек
    Ширина : 1280 пикселей
    Высота : 536 пикселей
    Соотношение сторон : 2,40:1
    Режим частоты кадров : Постоянный
    Частота кадров : 25,000 кадров/сек
    Цветовое пространство : YUV
    Субдискретизация насыщенности : 4:2:0
    Битовая глубина : 8 бит
    Тип развёртки : Прогрессивная
    Бит/(Пиксели*Кадры) : 0.290
    Размер потока : 4,72 Гбайт (81%)
    Библиотека кодирования : x264 core 129 r2245+704+36 8e61944 tMod+MixAQ [8-bit@4:2:0 X86_64]
    Настройки программы : cabac=1 / ref=12 / deblock=1:-3:-3 / analyse=0x3:0x133 / me=umh / subme=11 / psy=1 / fade_compensate=0.00 / psy_rd=1.05:0.10 / mixed_ref=1 / me_range=32 / chroma_me=1 / trellis=2 / 8x8dct=1 / cqm=0 / deadzone=21,11 / fast_pskip=0 / chroma_qp_offset=-3 / threads=18 / lookahead_threads=3 / sliced_threads=0 / nr=0 / decimate=0 / interlaced=0 / bluray_compat=0 / constrained_intra=0 / fgo=0 / bframes=10 / b_pyramid=2 / b_adapt=2 / b_bias=0 / direct=3 / weightb=1 / open_gop=0 / weightp=2 / keyint=250 / keyint_min=25 / scenecut=40 / intra_refresh=0 / rc_lookahead=80 / rc=2pass / mbtree=1 / bitrate=4980 / ratetol=1.0 / qcomp=0.70 / qpmin=0 / qpmax=69 / qpstep=4 / cplxblur=20.0 / qblur=0.5 / ip_ratio=1.40 / aq=1 / aq-strength=0.85 / aq-sensitivity=10.00 / aq-ifactor=1.00 / aq-pfactor=1.00 / aq-bfactor=1.00 / aq2=0
    Язык : Korean
    Default : Да
    Forced : Нет
    DURATION : 02:19:05.000000000
    NUMBER_OF_FRAMES : 208625
    NUMBER_OF_BYTES : 5191132689
    _STATISTICS_WRITING_APP : mkvmerge v8.3.0 ('Over the Horizon') 64bit
    _STATISTICS_WRITING_DATE_UTC : 2016-10-28 18:10:08
    _STATISTICS_TAGS : BPS DURATION NUMBER_OF_FRAMES NUMBER_OF_BYTES
    Коэффициенты матрицы : BT.709

    Аудио #1
    Идентификатор : 2
    Формат : AC-3
    Формат/Информация : Audio Coding 3
    Расширение режима : CM (complete main)
    Параметр Endianness формата : Big
    Идентификатор кодека : A_AC3
    Продолжительность : 2 ч. 19 м.
    Вид битрейта : Постоянный
    Битрейт : 384 Кбит/сек
    Каналы : 6 каналов
    Расположение каналов : Front: L C R, Side: L R, LFE
    Частота : 48,0 КГц
    Битовая глубина : 16 бит
    Метод сжатия : С потерями
    Размер потока : 382 Мбайт (6%)
    Язык : Russian
    Default : Да
    Forced : Нет

    Аудио #2
    Идентификатор : 3
    Формат : AC-3
    Формат/Информация : Audio Coding 3
    Расширение режима : CM (complete main)
    Параметр Endianness формата : Big
    Идентификатор кодека : A_AC3
    Продолжительность : 2 ч. 19 м.
    Вид битрейта : Постоянный
    Битрейт : 640 Кбит/сек
    Каналы : 6 каналов
    Расположение каналов : Front: L C R, Side: L R, LFE
    Частота : 48,0 КГц
    Битовая глубина : 16 бит
    Метод сжатия : С потерями
    Размер потока : 637 Мбайт (11%)
    Язык : Korean
    Default : Нет
    Forced : Нет

    Текст #1
    Идентификатор : 4
    Формат : UTF-8
    Идентификатор кодека : S_TEXT/UTF8
    Идентификатор кодека/Информация : UTF-8 Plain Text
    Заголовок : Simplified
    Язык : Chinese
    Default : Нет
    Forced : Нет

    Текст #2
    Идентификатор : 5
    Формат : UTF-8
    Идентификатор кодека : S_TEXT/UTF8
    Идентификатор кодека/Информация : UTF-8 Plain Text
    Заголовок : Traditional
    Язык : Chinese
    Default : Нет
    Forced : Нет

    Меню
    00:00:00.000 : en:00:00:00.000
    00:12:47.319 : en:00:12:47.319
    00:22:59.560 : en:00:22:59.560
    00:33:29.360 : en:00:33:29.360
    00:46:05.960 : en:00:46:05.960
    00:57:54.640 : en:00:57:54.640
    01:10:06.120 : en:01:10:06.120
    01:22:14.520 : en:01:22:14.520
    01:30:13.840 : en:01:30:13.840
    01:44:47.280 : en:01:44:47.280
    01:53:39.240 : en:01:53:39.240
    02:05:33.080 : en:02:05:33.080

10.0 из 10
голосов: 4
/10
/10
foster720p 28-10-2016, 23:45
Информация
Посетители, находящиеся в группе Гости, не могут оставлять комментарии к данной публикации.