Панель пользователя
Регистрация

Воспользуйтесь социальными сетями для входа на https://freerutor.com

vk odnoklassniki facebook mailru yandex google
Популярное
Счетчик
Голосуй за нас
VIP на сайте
Популярное
Товары интернет магазина
загрузка...

Маменькин сынок / Лоло (2015) BDRip 720p | iTunes

Маменькин сынок / Лоло (2015) BDRip 720p | iTunes
Участники торрент обмена
Сидов Пиров Скачали
154 9 1128
Характеристика
Размер Файлы
5.50 GB
Поделиться раздачей
Фильмы (720,1080,Blu-Ray)
Наименование: Маменькин сынок / Лоло
Оригинальное наименование: Lolo
Произведено: Франция
Категория: комедия
Режиссер постановщик: Жюли Дельпи
В главных ролях: Дани Бун, Жюли Дельпи, Венсан Лакост, Карин Вьяр, Кристоф Вандевельде, Элиза Ларниколь, Кристоф Канар, Николас Ваншыцкий
Краткое описание: Фильм рассказывает о трудоголичке Виолетте из мира моды, которая неожиданно влюбляется в компьютерщика Жана-Рене. Однако 19-летний сын Виолетты, Лоло, не в восторге от их отношений. Лоло решает во что бы то ни стало избавиться от возлюбленного своей матери...
  • Видео данные: MPEG-4 AVC, 5868 Kbps, 1280x534
    Аудио данные: Russian: AC3, 384 kb/s (6 ch) / French: DTS, 1509 kb/s (6 ch)
    Перевод: Дублированный [iTunes ]
    Субтитры: French
    Продолжительность: 01:39:28
  • Маменькин сынок / Лоло (2015) BDRip 720p | iTunes Маменькин сынок / Лоло (2015) BDRip 720p | iTunes Маменькин сынок / Лоло (2015) BDRip 720p | iTunes
  • Общее
    Уникальный идентификатор : 241384112831202782477998301806170308689 (0xB598E39C105B7708ADFF4A232B7D8051)
    Полное имя : D:\загрузки\L0L0.2015.D.BDRip.72Op.mkv
    Формат : Matroska
    Версия формата : Version 2
    Размер файла : 5,50 Гбайт
    Продолжительность : 1 ч. 39 м.
    Общий поток : 7919 Кбит/сек
    Дата кодирования : UTC 2016-12-04 19:15:52
    Программа кодирования : mkvmerge v8.3.0 ('Over the Horizon') 64bit
    Библиотека кодирования : libebml v1.3.1 + libmatroska v1.4.2
    DURATION : 01:39:26.400000000
    NUMBER_OF_FRAMES : 186450
    NUMBER_OF_BYTES : 286387200
    _STATISTICS_WRITING_APP : mkvmerge v8.3.0 ('Over the Horizon') 64bit
    _STATISTICS_WRITING_DATE_UTC : 2016-12-04 19:15:52
    _STATISTICS_TAGS : BPS DURATION NUMBER_OF_FRAMES NUMBER_OF_BYTES

    Видео
    Идентификатор : 1
    Формат : AVC
    Формат/Информация : Advanced Video Codec
    Профиль формата : High@L4.1
    Параметр CABAC формата : Да
    Параметр ReFrames формата : 12 кадров
    Идентификатор кодека : V_MPEG4/ISO/AVC
    Продолжительность : 1 ч. 39 м.
    Битрейт : 5868 Кбит/сек
    Ширина : 1280 пикселей
    Высота : 534 пикселя
    Соотношение сторон : 2,40:1
    Режим частоты кадров : Постоянный
    Частота кадров : 24,000 кадра/сек
    Цветовое пространство : YUV
    Субдискретизация насыщенности : 4:2:0
    Битовая глубина : 8 бит
    Тип развёртки : Прогрессивная
    Бит/(Пиксели*Кадры) : 0.358
    Размер потока : 4,08 Гбайт (74%)
    Заголовок : 2015
    Библиотека кодирования : x264 core 148 r2665kMod a01e339
    Настройки программы : cabac=1 / ref=12 / deblock=1:-3:-3 / analyse=0x3:0x133 / me=umh / subme=10 / psy=1 / fade_compensate=0.00 / psy_rd=1.01:0.00 / mixed_ref=1 / me_range=24 / chroma_me=1 / trellis=2 / 8x8dct=1 / cqm=0 / deadzone=21,11 / fast_pskip=0 / chroma_qp_offset=-2 / threads=12 / lookahead_threads=2 / sliced_threads=0 / nr=0 / decimate=0 / interlaced=0 / bluray_compat=0 / constrained_intra=0 / fgo=0 / bframes=7 / b_pyramid=2 / b_adapt=2 / b_bias=0 / direct=3 / weightb=1 / open_gop=0 / weightp=2 / keyint=250 / keyint_min=24 / scenecut=40 / intra_refresh=0 / rc_lookahead=60 / rc=crf / mbtree=0 / crf=16.2000 / qcomp=0.65 / qpmin=0 / qpmax=69 / qpstep=4 / vbv_maxrate=62500 / vbv_bufsize=78125 / crf_max=0.0 / nal_hrd=none / filler=0 / ip_ratio=1.30 / pb_ratio=1.20 / aq=3:0.85 / zones=100,2974,crf=15/22624,26900,crf=15/33266,36414,crf=15/60389,61311,crf=15/68701,69277,crf=15/71182,77769,crf=15/77770,80168,crf=15/81366,82647,crf=15/86195,87397,crf=15/89976,90025,crf=15/96768,98165,crf=15/98166,101045,crf=15/101046,102505,crf=15/102506,104707,crf=15/118993,120327,crf=15/121423,126400,crf=15/127950,129683,crf=15/134364,134817,crf=16.5/134817,137708,crf=24
    Язык : French
    Default : Да
    Forced : Нет
    DURATION : 01:39:28.459000000
    NUMBER_OF_FRAMES : 143243
    NUMBER_OF_BYTES : 4493672360
    _STATISTICS_WRITING_APP : mkvmerge v8.3.0 ('Over the Horizon') 64bit
    _STATISTICS_WRITING_DATE_UTC : 2016-12-04 19:15:52
    _STATISTICS_TAGS : BPS DURATION NUMBER_OF_FRAMES NUMBER_OF_BYTES
    Коэффициенты матрицы : BT.709

    Аудио #1
    Идентификатор : 2
    Формат : AC-3
    Формат/Информация : Audio Coding 3
    Расширение режима : CM (complete main)
    Параметр Endianness формата : Big
    Идентификатор кодека : A_AC3
    Продолжительность : 1 ч. 39 м.
    Вид битрейта : Постоянный
    Битрейт : 384 Кбит/сек
    Каналы : 6 каналов
    Расположение каналов : Front: L C R, Side: L R, LFE
    Частота : 48,0 КГц
    Битовая глубина : 16 бит
    Метод сжатия : С потерями
    Размер потока : 273 Мбайт (5%)
    Язык : Russian
    Default : Да
    Forced : Да

    Аудио #2
    Идентификатор : 3
    Формат : DTS
    Формат/Информация : Digital Theater Systems
    Режим : 16
    Параметр Endianness формата : Big
    Идентификатор кодека : A_DTS
    Продолжительность : 1 ч. 39 м.
    Вид битрейта : Постоянный
    Битрейт : 1509 Кбит/сек
    Каналы : 6 каналов
    Расположение каналов : Front: L C R, Side: L R, LFE
    Частота : 48,0 КГц
    Битовая глубина : 24 бит
    Метод сжатия : С потерями
    Размер потока : 1,05 Гбайт (19%)
    Заголовок : French
    Язык : French
    Default : Нет
    Forced : Нет

    Текст #1
    Идентификатор : 4
    Формат : UTF-8
    Идентификатор кодека : S_TEXT/UTF8
    Идентификатор кодека/Информация : UTF-8 Plain Text
    Заголовок : French
    Язык : French
    Default : Нет
    Forced : Нет

    Текст #2
    Идентификатор : 5
    Формат : UTF-8
    Идентификатор кодека : S_TEXT/UTF8
    Идентификатор кодека/Информация : UTF-8 Plain Text
    Заголовок : French
    Язык : French
    Default : Нет
    Forced : Нет

    Меню
    00:00:00.000 : en:00:00:00.000
    00:06:32.750 : en:00:06:32.750
    00:14:36.333 : en:00:14:36.333
    00:23:06.083 : en:00:23:06.083
    00:33:09.375 : en:00:33:09.375
    00:42:34.667 : en:00:42:34.667
    00:49:28.417 : en:00:49:28.417
    01:00:36.917 : en:01:00:36.917
    01:08:10.250 : en:01:08:10.250
    01:15:40.583 : en:01:15:40.583
    01:26:21.583 : en:01:26:21.583
    01:35:39.417 : en:01:35:39.417
10.0 из 10
голосов: 4
/10
/10
Strelok777 5-12-2016, 01:46
Информация
Посетители, находящиеся в группе Гости, не могут оставлять комментарии к данной публикации.