Панель пользователя
Регистрация

Воспользуйтесь социальными сетями для входа на https://freerutor.com

vk odnoklassniki facebook mailru yandex google
Популярное
Счетчик
Голосуй за нас
VIP на сайте
Популярное
Товары интернет магазина
загрузка...

Полный абзац (2011) BDRip 720p | Лицензия

Полный абзац (2011) BDRip 720p | Лицензия
Участники торрент обмена
Сидов Пиров Скачали
0 0 156
Характеристика
Размер Файлы
4.37 GB
Поделиться раздачей
Фильмы (720,1080,Blu-Ray)
Наименование: Полный абзац
Оригинальное наименование: Whole Lotta Sole
Произведено: Великобритания
Категория: драма, комедия
Режиссер постановщик: Терри Джордж
В главных ролях: Брендан Фрейзер, Колм Мини, Мартин МакКанн, Йайа ДаКоста, Дэвид О Хара, Майкл Лидж, Конор МакНил, Фрэнки МакКафферти, Руперт Викхэм, Мэри МакКроссен
Краткое описание: Дело происходит в Северной Ирландии. В центре сюжета - молодой бездельник Джимбо, ступивший на скользкую дорожку азартных игр. Дебют вышел не слишком удачным: Джимбо проигрался в пух и прах, и теперь ему нужно рассчитаться с долгами. Не придумав ничего лучше, парень решает ограбить рыбную лавку, но и тут Джимбо ждут осложнения: предприятие принимает серьезный оборот, и горе-грабителю приходится взять заложников.
  • Видео данные: MPEG-4 AVC, 5720 Кбит/с, 1280x688
    Аудио данные: Русский, английский (AC3, 6 ch, 640 Кбит/с)
    Перевод: Профессиональный многоголосный [Лицензия]
    Субтитры: Русские, английские
    Продолжительность: 01:29:22
  • Полный абзац (2011) BDRip 720p | Лицензия Полный абзац (2011) BDRip 720p | Лицензия Полный абзац (2011) BDRip 720p | Лицензия
  • General
    Unique ID : 230641540495798568418225810436524627986 (0xAD83F1E6AC60991E870C96CC01E85812)
    Complete name : Whole.Lotta.Sole.2011.BDRip.720p.mkv
    Format : Matroska
    Format version : Version 4 / Version 2
    File size : 4.37 GiB
    Duration : 1h 29mn
    Overall bit rate : 6 999 Kbps
    Movie name : Полный абзац / Whole Lotta Sole / Stand Off (2011) BDRip (720p) от ivandubskoj | GER Transfer
    Encoded date : UTC 2016-08-06 10:37:19
    Writing application : mkvmerge v7.9.0 ('Birds') 64bit
    Writing library : libebml v1.3.1 + libmatroska v1.4.2

    Video
    ID : 1
    Format : AVC
    Format/Info : Advanced Video Codec
    Format profile : High@L4.1
    Format settings, CABAC : Yes
    Format settings, ReFrames : 9 frames
    Codec ID : V_MPEG4/ISO/AVC
    Duration : 1h 29mn
    Bit rate : 5 720 Kbps
    Width : 1 280 pixels
    Height : 688 pixels
    Display aspect ratio : 1.85:1
    Frame rate mode : Constant
    Frame rate : 23.976 fps
    Color space : YUV
    Chroma subsampling : 4:2:0
    Bit depth : 8 bits
    Scan type : Progressive
    Bits/(Pixel*Frame) : 0.271
    Stream size : 3.48 GiB (80%)
    Title : Whole Lotta Sole / Stand Off (2011)
    Writing library : x264 core 148 r2597 e86f3a1
    Encoding settings : cabac=1 / ref=9 / deblock=1:-3:-3 / analyse=0x3:0x113 / me=umh / subme=10 / psy=1 / psy_rd=1.00:0.10 / mixed_ref=1 / me_range=32 / chroma_me=1 / trellis=2 / 8x8dct=1 / cqm=0 / deadzone=21,11 / fast_pskip=0 / chroma_qp_offset=-3 / threads=6 / lookahead_threads=1 / sliced_threads=0 / nr=0 / decimate=0 / interlaced=0 / bluray_compat=0 / constrained_intra=0 / bframes=8 / b_pyramid=2 / b_adapt=2 / b_bias=0 / direct=3 / weightb=1 / open_gop=0 / weightp=2 / keyint=240 / keyint_min=23 / scenecut=40 / intra_refresh=0 / rc_lookahead=40 / rc=2pass / mbtree=0 / bitrate=5720 / ratetol=1.0 / qcomp=0.60 / qpmin=0 / qpmax=69 / qpstep=4 / cplxblur=20.0 / qblur=0.5 / vbv_maxrate=50000 / vbv_bufsize=62500 / nal_hrd=none / filler=0 / ip_ratio=1.40 / pb_ratio=1.30 / aq=1:1.00
    Language : English
    Default : Yes
    Forced : No

    Audio #1
    ID : 2
    Format : AC-3
    Format/Info : Audio Coding 3
    Mode extension : CM (complete main)
    Format settings, Endianness : Big
    Codec ID : A_AC3
    Duration : 1h 29mn
    Bit rate mode : Constant
    Bit rate : 640 Kbps
    Channel(s) : 6 channels
    Channel positions : Front: L C R, Side: L R, LFE
    Sampling rate : 48.0 KHz
    Bit depth : 16 bits
    Compression mode : Lossy
    Stream size : 409 MiB (9%)
    Title : MVO
    Language : Russian
    Default : Yes
    Forced : No

    Audio #2
    ID : 3
    Format : AC-3
    Format/Info : Audio Coding 3
    Mode extension : CM (complete main)
    Format settings, Endianness : Big
    Codec ID : A_AC3
    Duration : 1h 29mn
    Bit rate mode : Constant
    Bit rate : 640 Kbps
    Channel(s) : 6 channels
    Channel positions : Front: L C R, Side: L R, LFE
    Sampling rate : 48.0 KHz
    Bit depth : 16 bits
    Compression mode : Lossy
    Stream size : 409 MiB (9%)
    Title : Original
    Language : English
    Default : No
    Forced : No

    Text #1
    ID : 4
    Format : UTF-8
    Codec ID : S_TEXT/UTF8
    Codec ID/Info : UTF-8 Plain Text
    Title : Full
    Language : Russian
    Default : No
    Forced : No

    Text #2
    ID : 5
    Format : UTF-8
    Codec ID : S_TEXT/UTF8
    Codec ID/Info : UTF-8 Plain Text
    Title : Full
    Language : English
    Default : No
    Forced : No

    Text #3
    ID : 6
    Format : UTF-8
    Codec ID : S_TEXT/UTF8
    Codec ID/Info : UTF-8 Plain Text
    Title : Full [SDH]
    Language : English
    Default : No
    Forced : No

    Menu
    00:00:00.000 : en:Chapter 01
    00:08:13.451 : en:Chapter 02
    00:17:14.282 : en:Chapter 03
    00:24:24.713 : en:Chapter 04
    00:30:32.497 : en:Chapter 05
    00:39:16.520 : en:Chapter 06
    00:49:03.982 : en:Chapter 07
    00:56:52.575 : en:Chapter 08
    01:04:41.544 : en:Chapter 09
    01:12:34.683 : en:Chapter 10
    01:19:06.783 : en:Chapter 11
    01:25:48.893 : en:Chapter 12
7.7 из 10
голосов: 3
/10
/10
grab777 7-08-2016, 02:49
Информация
Посетители, находящиеся в группе Гости, не могут оставлять комментарии к данной публикации.