Панель пользователя
Регистрация

Воспользуйтесь социальными сетями для входа на https://freerutor.com

vk odnoklassniki facebook mailru yandex google
Популярное
Счетчик
Голосуй за нас
VIP на сайте
Популярное
Товары интернет магазина
загрузка...

Книга джунглей (2016) Blu-Ray Remux СEE 1080p | Лицензия

Книга джунглей (2016) Blu-Ray Remux СEE 1080p | Лицензия
Участники торрент обмена
Сидов Пиров Скачали
2 0 650
Характеристика
Размер Файлы
29.67 GB
Релиз группа
Поделиться раздачей
Фильмы (720,1080,Blu-Ray)
Наименование: Книга джунглей
Оригинальное наименование: The Jungle Book
Категория: Фэнтези, драма, приключения
Произведено: США, Walt Disney Pictures
Режиссер: Джон Фавро
В ролях: Нил Сети, Билл Мюррэй, Бен Кингсли, Идрис Эльба, Лупита Нионго, Скарлетт Йоханссон, Джанкарло Эспозито, Кристофер Уокен, Гарри Шендлинг, Брайтон Роуз, Эмджей Энтони, Макс Фавро, Хлоя Хехтер, Эшер Блинкофф, Нокс Ганьон, Саша Шрайбер, Кай Шрайбер, Джон Фавро, Сэм Рэйми, Расселл Питерс
Краткое описание: Эта удивительная история повествует о маленьком мальчике, которого вырастили в глухом лесу говорящие животные. Он воспитывался в волчьей стае и постигал законы джунглей под присмотром мудрой пантеры Багиры. Однако, всевозрастающая угроза со стороны тигра Шерхана вынуждает его покинуть родной дом и отправиться в ближайшую деревню к людям. Ему предстоит пройти длинный путь к познанию своего прошлого, преисполненный опасными приключениями и захватывающими встречами с медведем Балу, питоном Каа, обезьяним королем Луи и другими лесными жителями.
  • Видео данные: MPEG-4 AVC, 30026 Кбит/с, 1920x1080
    Аудио данные: Русский (AC3, 6 ch, 640 Кбит/с), украинский (DTS-HD MA, 6 ch, 4132 Кбит/с), английский (DTS-HD MА, 8 ch, 5356 Кбит/с), (AC3, 2 ch, 192 Кбит/с)
    Перевод: Дублированный [лицензия]
    Продолжительность: 01:45:54
    Субтитры: Русские, английские
    Реклама отсутствует.
  • Книга джунглей (2016) Blu-Ray Remux СEE 1080p | Лицензия Книга джунглей (2016) Blu-Ray Remux СEE 1080p | Лицензия Книга джунглей (2016) Blu-Ray Remux СEE 1080p | Лицензия
  • Format : Matroska
    Format version : Version 2
    File size : 29.7 GiB
    Duration : 1 h 45 min
    Overall bit rate mode : Variable
    Overall bit rate : 40.1 Mb/s
    Encoded date : UTC 2016-08-27 12:07:59
    Writing application : mkvmerge v4.2.0 ('No Talking') сборка от Jul 28 2010 18:38:23
    Writing library : libebml v1.0.0 + libmatroska v1.0.0

    Video
    ID : 1
    Format : AVC
    Format/Info : Advanced Video Codec
    Format profile : High@L4.1
    Format settings, CABAC : Yes
    Format settings, ReFrames : 4 frames
    Codec ID : V_MPEG4/ISO/AVC
    Duration : 1 h 45 min
    Bit rate mode : Variable
    Maximum bit rate : 32.0 Mb/s
    Width : 1 920 pixels
    Height : 1 080 pixels
    Display aspect ratio : 16:9
    Frame rate mode : Constant
    Frame rate : 23.976 (24000/1001) FPS
    Color space : YUV
    Chroma subsampling : 4:2:0
    Bit depth : 8 bits
    Scan type : Progressive
    Default : Yes
    Forced : No

    Audio #1
    ID : 2
    Format : AC-3
    Format/Info : Audio Coding 3
    Mode extension : CM (complete main)
    Format settings, Endianness : Big
    Codec ID : A_AC3
    Duration : 1 h 45 min
    Bit rate mode : Constant
    Bit rate : 640 kb/s
    Channel(s) : 6 channels
    Channel positions : Front: L C R, Side: L R, LFE
    Sampling rate : 48.0 kHz
    Frame rate : 31.250 FPS (1536 spf)
    Compression mode : Lossy
    Stream size : 485 MiB (2%)
    Default : Yes
    Forced : No

    Audio #2
    ID : 3
    Format : DTS
    Format/Info : Digital Theater Systems
    Format profile : MA / Core
    Mode : 16
    Format settings, Endianness : Big
    Codec ID : A_DTS
    Duration : 1 h 45 min
    Bit rate mode : Variable / Constant
    Bit rate : Unknown / 1 509 kb/s
    Channel(s) : 6 channels
    Channel positions : Front: L C R, Side: L R, LFE
    Sampling rate : 48.0 kHz
    Frame rate : 93.750 FPS (512 spf)
    Bit depth : 24 bits
    Compression mode : Lossless / Lossy
    Title : Disney / Buena Vista
    Language : Ukrainian
    Default : No
    Forced : No

    Audio #3
    ID : 4
    Format : DTS
    Format/Info : Digital Theater Systems
    Format profile : MA / Core
    Mode : 16
    Format settings, Endianness : Big
    Codec ID : A_DTS
    Duration : 1 h 45 min
    Bit rate mode : Variable / Constant
    Bit rate : Unknown / 1 509 kb/s
    Channel(s) : 8 channels / 6 channels
    Channel positions : Front: L C R, Side: L R, Back: L R, LFE / Front: L C R, Side: L R, LFE
    Sampling rate : 48.0 kHz
    Frame rate : 93.750 FPS (512 spf)
    Bit depth : 24 bits
    Compression mode : Lossless / Lossy
    Language : English
    Default : No
    Forced : No

    Audio #4
    ID : 5
    Format : AC-3
    Format/Info : Audio Coding 3
    Mode extension : CM (complete main)
    Format settings, Endianness : Big
    Codec ID : A_AC3
    Duration : 1 h 45 min
    Bit rate mode : Constant
    Bit rate : 192 kb/s
    Channel(s) : 2 channels
    Channel positions : Front: L R
    Sampling rate : 48.0 kHz
    Frame rate : 31.250 FPS (1536 spf)
    Compression mode : Lossy
    Stream size : 145 MiB (0%)
    Title : Commentary with Director Jon Favreau
    Language : English
    Default : No
    Forced : No

    Text #1
    ID : 6
    Format : UTF-8
    Codec ID : S_TEXT/UTF8
    Codec ID/Info : UTF-8 Plain Text
    Title : Forced, iTunes
    Language : Russian
    Default : Yes
    Forced : No

    Text #2
    ID : 7
    Format : UTF-8
    Codec ID : S_TEXT/UTF8
    Codec ID/Info : UTF-8 Plain Text
    Title : iTunes
    Language : Russian
    Default : No
    Forced : No

    Text #3
    ID : 8
    Format : UTF-8
    Codec ID : S_TEXT/UTF8
    Codec ID/Info : UTF-8 Plain Text
    Title : iTunes
    Language : English
    Default : No
    Forced : No

    Text #4
    ID : 9
    Format : UTF-8
    Codec ID : S_TEXT/UTF8
    Codec ID/Info : UTF-8 Plain Text
    Language : English
    Default : No
    Forced : No

    Text #5
    ID : 10
    Format : UTF-8
    Codec ID : S_TEXT/UTF8
    Codec ID/Info : UTF-8 Plain Text
    Title : SDH
    Language : English
    Default : No
    Forced : No

    Text #6
    ID : 11
    Format : UTF-8
    Codec ID : S_TEXT/UTF8
    Codec ID/Info : UTF-8 Plain Text
    Title : Commentary
    Language : English
    Default : No
    Forced : No

    Menu
    00:00:00.000 : en:Chapter 01
    00:00:48.214 : en:Chapter 02
    00:05:15.315 : en:Chapter 03
    00:09:02.458 : en:Chapter 04
    00:12:42.178 : en:Chapter 05
    00:16:34.451 : en:Chapter 06
    00:21:20.028 : en:Chapter 07
    00:27:15.133 : en:Chapter 08
    00:35:04.143 : en:Chapter 09
    00:43:21.724 : en:Chapter 10
    00:48:05.132 : en:Chapter 11
    00:53:29.247 : en:Chapter 12
    00:58:03.271 : en:Chapter 13
    01:05:46.442 : en:Chapter 14
    01:10:35.522 : en:Chapter 15
    01:17:01.325 : en:Chapter 16
    01:20:48.927 : en:Chapter 17
    01:24:46.539 : en:Chapter 18
    01:30:32.969 : en:Chapter 19
    01:35:53.205 : en:Chapter 20
    [свернуть]
    Скриншоты
9.8 из 10
голосов: 10
/10
/10
Раздачу отредактировал: 616759 - 27-08-2016, 18:10
По причине: (заменено на лицензионный звук 640 Кбит/с)
616759 27-08-2016, 18:09
Информация
Посетители, находящиеся в группе Гости, не могут оставлять комментарии к данной публикации.