Панель пользователя
Регистрация

Воспользуйтесь социальными сетями для входа на https://freerutor.com

vk odnoklassniki facebook mailru yandex google
Популярное
Счетчик
Голосуй за нас
VIP на сайте
Популярное
Товары интернет магазина
загрузка...

Олимпийские Игры 2016. Церемония открытия (2016) HDTV 1080i

Олимпийские Игры 2016. Церемония открытия (2016) HDTV 1080i
Участники торрент обмена
Сидов Пиров Скачали
1 0 67
Характеристика
Размер Файлы
21.47 GB
Поделиться раздачей
ТВ передачи
Оригинальное наименование: Олимпийские Игры 2016.
Церемония открытия
Категория: Олимпиада
Произведено: Россия, Матч! Арена HD
Комментаторы: Анна Дмитриева и Денис Казанский
Краткое описание: Церемония открытия XXXI Летних Олимпийских Игр в Рио-де-Жанейро.
  • Видео данные: AVC/H.264, 1920x1080, 25 fps, ~12,2 Mb/s
    Аудио данные: MP2, 2 ch, 48000 Hz, 192 Kbps
    Перевод: Оригинал
    Продолжительность: 03:54:47
  • Олимпийские Игры 2016. Церемония открытия (2016) HDTV 1080i Олимпийские Игры 2016. Церемония открытия (2016) HDTV 1080i
  • Общее
    Идентификатор : 1 (0x1)
    Полное имя : F:\ТВ\Олимпийские игры в Рио 2016\Церемония открытия летних олимпийских игр в Рио 2016_(Матч Арена HD)_HDTV_1080i_steep.ts
    Формат : MPEG-TS
    Размер файла : 21,5 Гбайт
    Продолжительность : 3 ч. 54 м.
    Режим общего битрейта : Переменный
    Общий поток : 13,1 Мбит/сек
    Видео
    Идентификатор : 324 (0x144)
    Идентификатор меню : 12104 (0x2F48)
    Формат : AVC
    Формат/Информация : Advanced Video Codec
    Профиль формата : High@L4
    Параметр CABAC формата : Да
    Параметр ReFrames формата : 4 кадра
    Идентификатор кодека : 27
    Продолжительность : 3 ч. 54 м.
    Битрейт : 12,2 Мбит/сек
    Ширина : 1920 пикселей
    Высота : 1080 пикселей
    Соотношение сторон : 16:9
    Частота кадров : 25,000 кадров/сек
    Стандарт вещания : Component
    Цветовое пространство : YUV
    Субдискретизация насыщенности : 4:2:0
    Битовая глубина : 8 бит
    Тип развёртки : Чересстрочная
    Метод сохранения типа развёртки : Раздельные поля
    Порядок развёртки : Верхнее поле первое
    Бит/(Пиксели*Кадры) : 0.236
    Размер потока : 20,1 Гбайт (94%)
    Цветовой диапазон : Limited
    Основные цвета : BT.709
    Характеристики трансфера : BT.709
    Коэффициенты матрицы : BT.709
    Аудио
    Идентификатор : 404 (0x194)
    Идентификатор меню : 12104 (0x2F48)
    Формат : MPEG Audio
    Версия формата : Version 1
    Профиль формата : Layer 2
    Идентификатор кодека : 3
    Продолжительность : 3 ч. 54 м.
    Вид битрейта : Постоянный
    Битрейт : 192 Кбит/сек
    Каналы : 2 канала
    Частота : 48,0 КГц
    Метод сжатия : С потерями
    Размер потока : 322 Мбайт (1%)
    Язык : Russian
10.0 из 10
голосов: 4
616759 6-08-2016, 07:54

616759 | 6-08-2016, 12:34 | Статус: Онлайн

Цитата: u58
Привет, 616759! Спасибо, за файл, а есть в 4к формате?

Привет! Нету. Тв в 4к не вещает пока ещё насколько я знаю smile

u58 | 6-08-2016, 09:24 | Статус: Оффлайн

Привет, 616759! Спасибо, за файл, а есть в 4к формате?
Информация
Посетители, находящиеся в группе Гости, не могут оставлять комментарии к данной публикации.