Панель пользователя
Регистрация

Воспользуйтесь социальными сетями для входа на https://freerutor.com

vk odnoklassniki facebook mailru yandex google
Популярное
Счетчик
Голосуй за нас
VIP на сайте
Популярное
Товары интернет магазина
загрузка...

Аттенборо и гигантский динозавр (2016) HDTV 1080i

Аттенборо и гигантский динозавр (2016) HDTV 1080i
Участники торрент обмена
Сидов Пиров Скачали
4 1 665
Характеристика
Размер Файлы
3.62 GB
Релиз группа
Поделиться раздачей
Документальный
Наименование: Аттенборо и гигантский динозавр
Оригинальное наименование: Attenborough and the Giant Dinosaur
Произведено: Великобритания
Категория: документальный
Режиссер постановщик: Шарлотта Скотт
В главных ролях: Дэвид Аттенборо
Краткое описание: История о 220 костях, найденных в аргентинской пустыне, которые окажутся принадлежащими ранее неизвестному виду динозавра. Динозавра, возможно, крупнейшего, из существовавших на земле. Дэвид Аттенборо вместе с палеонтологом доктором Диего Полом окажется на месте раскопок и в лаборатории, где останки будут очищены и проанализированы, и встретится с другими экспертами, работающими над реконструкцией огромного скелета.
  • Видео данные: MPEG-4 AVC, 7920 Кбит/с, 1980x1080
    Аудио данные: Русский (АС3, 5 ch, 384 Кбит/с), английский (АС3, 2 ch, 384 Кбит/с)
    Перевод: Профессиональный одноголосый [Омикрон]
    Продолжительность: 00:58:27
  • Аттенборо и гигантский динозавр (2016) HDTV 1080i Аттенборо и гигантский динозавр (2016) HDTV 1080i Аттенборо и гигантский динозавр (2016) HDTV 1080i
  • Общее
    Уникальный идентификатор : 205060567438073342285535953261192611126 (0x9A453A8DAB58F2BCA09822F322AD0536)
    Полное имя : Attenborough.and.the.Giant.Dinosaur.2016.1080p.HDTV.Rus.Eng.HDCLUB.mkv
    Формат : Matroska
    Версия формата : Version 2
    Размер файла : 3,62 Гбайт
    Продолжительность : 58 м.
    Общий поток : 8864 Кбит/сек
    Дата кодирования : UTC 2016-07-29 12:22:03
    Программа кодирования : mkvmerge v3.2.0 ('Beginnings') built on Feb 12 2010 16:46:17
    Библиотека кодирования : libebml v0.7.9 + libmatroska v0.8.1

    Видео
    Идентификатор : 1
    Формат : AVC
    Формат/Информация : Advanced Video Codec
    Профиль формата : High@L4.1
    Параметр CABAC формата : Да
    Параметр ReFrames формата : 4 кадра
    Идентификатор кодека : V_MPEG4/ISO/AVC
    Продолжительность : 58 м.
    Битрейт : 7920 Кбит/сек
    Ширина : 1920 пикселей
    Высота : 1080 пикселей
    Соотношение сторон : 16:9
    Режим частоты кадров : Постоянный
    Частота кадров : 25,000 кадров/сек
    Цветовое пространство : YUV
    Субдискретизация насыщенности : 4:2:0
    Битовая глубина : 8 бит
    Тип развёртки : Прогрессивная
    Бит/(Пиксели*Кадры) : 0.153
    Размер потока : 3,23 Гбайт (89%)
    Библиотека кодирования : x264 core 148 r2665 a01e339
    Настройки программы : cabac=1 / ref=4 / deblock=1:0:0 / analyse=0x3:0x113 / me=umh / subme=8 / psy=1 / psy_rd=1.00:0.00 / mixed_ref=1 / me_range=16 / chroma_me=1 / trellis=1 / 8x8dct=1 / cqm=0 / deadzone=21,11 / fast_pskip=1 / chroma_qp_offset=-2 / threads=12 / lookahead_threads=2 / sliced_threads=0 / nr=0 / decimate=1 / interlaced=0 / bluray_compat=0 / constrained_intra=0 / bframes=3 / b_pyramid=2 / b_adapt=2 / b_bias=0 / direct=3 / weightb=1 / open_gop=0 / weightp=2 / keyint=250 / keyint_min=25 / scenecut=40 / intra_refresh=0 / rc_lookahead=50 / rc=crf / mbtree=1 / crf=20.0 / qcomp=0.60 / qpmin=0 / qpmax=69 / qpstep=4 / ip_ratio=1.40 / aq=1:1.00
    Default : Нет
    Forced : Нет
    Цветовой диапазон : Limited
    Коэффициенты матрицы : BT.709

    Аудио #1
    Идентификатор : 2
    Формат : AC-3
    Формат/Информация : Audio Coding 3
    Расширение режима : CM (complete main)
    Параметр Endianness формата : Big
    Идентификатор кодека : A_AC3
    Продолжительность : 58 м.
    Вид битрейта : Постоянный
    Битрейт : 384 Кбит/сек
    Каналы : 5 каналов
    Расположение каналов : Front: L C R, Side: L R
    Частота : 48,0 КГц
    Частота кадров : 31,250 кадров/сек (1536 spf)
    Метод сжатия : С потерями
    Размер потока : 161 Мбайт (4%)
    Заголовок : AC3 2.0 @ 384 kbps - Одноголосый закадровый, студия "Омикрон"
    Язык : Russian
    Default : Да
    Forced : Нет

    Аудио #2
    Идентификатор : 3
    Формат : AC-3
    Формат/Информация : Audio Coding 3
    Расширение режима : CM (complete main)
    Параметр Endianness формата : Big
    Идентификатор кодека : A_AC3
    Продолжительность : 58 м.
    Вид битрейта : Постоянный
    Битрейт : 384 Кбит/сек
    Каналы : 2 канала
    Расположение каналов : Front: L R
    Частота : 48,0 КГц
    Частота кадров : 31,250 кадров/сек (1536 spf)
    Метод сжатия : С потерями
    Размер потока : 161 Мбайт (4%)
    Заголовок : AC3 2.0 @ 384 kbps
    Язык : English
    Default : Нет
    Forced : Нет
10.0 из 10
голосов: 2
/10
/10
grab777 5-08-2016, 07:30
Информация
Посетители, находящиеся в группе Гости, не могут оставлять комментарии к данной публикации.