Панель пользователя
Регистрация

Воспользуйтесь социальными сетями для входа на https://freerutor.com

vk odnoklassniki facebook mailru yandex google
Популярное
Счетчик
Голосуй за нас
VIP на сайте
Популярное
Товары интернет магазина
загрузка...

Бридженд / Город самоубийц (2015) WEB-DL 1080p

Бридженд / Город самоубийц (2015) WEB-DL 1080p
Участники торрент обмена
Сидов Пиров Скачали
3 0 360
Характеристика
Размер Файлы
3.81 GB
Релиз группа
Поделиться раздачей
Фильмы (720,1080,Blu-Ray)
Наименование: Бридженд / Город самоубийц
Оригинальное наименование: Bridgend
Произведено: Дания
Категория: драма
Режиссер постановщик: Йеппе Рёнде
В главных ролях: Ханна Мюррэй, Джош О Коннор, Эдриан Роулинз, Патриция Поттер, Ниа Робертс, Стивен Вэддингтон, Скотт Артур, Алед Ллир Томас, Элинор Кроули, Джэми Берч
Краткое описание: Этот фильм - бескомпромиссная история об отношениях между ранимыми подростками и их родителями. Повествование строится на таинственной серии самоубийств, произошедших в графстве Бридженд, небольшой бывшей угольно-промышленной провинции Уэльса. С декабря 2007 по январь 2012 официально известно о семидесяти девяти самоубийствах в регионе.
  • Видео данные: MPEG-4 AVC, 4444 Кбит/с, 1912x792
    Аудио данные: Русский (AC3, 2 ch, 192 Кбит/с), английский (AC3, 6 ch, 384 Кбит/с)
    Перевод: Любительский двухголосый [DeadSno&Den904]
    Субтитры: Английские
    Продолжительность: 01:48:40
    Бридженд / Город самоубийц (2015) WEB-DL 1080p
  • Бридженд / Город самоубийц (2015) WEB-DL 1080p Бридженд / Город самоубийц (2015) WEB-DL 1080p Бридженд / Город самоубийц (2015) WEB-DL 1080p
  • General
    Unique ID : 248702744691913242443110997967289977047 (0xBB1A6804F0140C4781ACF396B16808D7)
    Complete name : G:VideoBridgend.2015.DVO.WEB-DL.1080p.ExKinoRay.mkv
    Format : Matroska
    Format version : Version 4 / Version 2
    File size : 3.81 GiB
    Duration : 1h 48mn
    Overall bit rate : 5 022 Kbps
    Movie name : Bridgend.2015.DVO.WEB-DL.1080p.ExKinoRay
    Encoded date : UTC 2016-08-04 22:00:57
    Writing application : mkvmerge v8.3.0 ('Over the Horizon') 64bit
    Writing library : libebml v1.3.1 + libmatroska v1.4.2

    Video
    ID : 1
    Format : AVC
    Format/Info : Advanced Video Codec
    Format profile : High@L4
    Format settings, CABAC : Yes
    Format settings, ReFrames : 5 frames
    Format settings, GOP : N=1
    Codec ID : V_MPEG4/ISO/AVC
    Duration : 1h 48mn
    Bit rate : 4 444 Kbps
    Width : 1 912 pixels
    Height : 792 pixels
    Display aspect ratio : 2.40:1
    Frame rate mode : Constant
    Frame rate : 23.976 (24000/1001) fps
    Color space : YUV
    Chroma subsampling : 4:2:0
    Bit depth : 8 bits
    Scan type : Progressive
    Bits/(Pixel*Frame) : 0.122
    Stream size : 3.37 GiB (88%)
    Language : English
    Default : Yes
    Forced : No
    Color range : Limited
    Color primaries : BT.709
    Transfer characteristics : BT.709
    Matrix coefficients : BT.709

    Audio #1
    ID : 2
    Format : AC-3
    Format/Info : Audio Coding 3
    Mode extension : CM (complete main)
    Format settings, Endianness : Big
    Codec ID : A_AC3
    Duration : 1h 48mn
    Bit rate mode : Constant
    Bit rate : 192 Kbps
    Channel(s) : 2 channels
    Channel positions : Front: L R
    Sampling rate : 48.0 KHz
    Frame rate : 31.250 fps (1536 spf)
    Compression mode : Lossy
    Delay relative to video : 3s 0ms
    Stream size : 149 MiB (4%)
    Title : DVO
    Language : Russian
    Default : Yes
    Forced : No

    Audio #2
    ID : 3
    Format : AC-3
    Format/Info : Audio Coding 3
    Mode extension : CM (complete main)
    Format settings, Endianness : Big
    Codec ID : A_AC3
    Duration : 1h 48mn
    Bit rate mode : Constant
    Bit rate : 384 Kbps
    Channel(s) : 6 channels
    Channel positions : Front: L C R, Side: L R, LFE
    Sampling rate : 48.0 KHz
    Frame rate : 31.250 fps (1536 spf)
    Compression mode : Lossy
    Stream size : 298 MiB (8%)
    Title : Original
    Language : English
    Default : No
    Forced : No

    Text
    ID : 4
    Format : UTF-8
    Codec ID : S_TEXT/UTF8
    Codec ID/Info : UTF-8 Plain Text
    Duration : 1h 38mn
    Bit rate : 22 bps
    Count of elements : 736
    Stream size : 16.0 KiB (0%)
    Title : Full
    Language : English
    Default : No
    Forced : No

    Menu
    00:00:00.000 : en:1
    00:01:55.000 : en:2
    00:08:52.000 : en:3
    00:19:17.000 : en:4
    00:30:03.000 : en:5
    00:42:02.000 : en:6
    00:51:00.000 : en:7
    01:01:28.000 : en:8
    01:10:41.000 : en:9
    01:20:40.000 : en:10
    01:32:35.000 : en:11
    01:44:57.000 : en:12
5.3 из 10
голосов: 3
/10
/10
grab777 5-08-2016, 07:12
Информация
Посетители, находящиеся в группе Гости, не могут оставлять комментарии к данной публикации.