Панель пользователя
Регистрация

Воспользуйтесь социальными сетями для входа на https://freerutor.com

vk odnoklassniki facebook mailru yandex google
Популярное
Счетчик
Голосуй за нас
VIP на сайте
Популярное
Товары интернет магазина
загрузка...

Нечто (2011) BDRip 1080p

Нечто (2011) BDRip 1080p
Участники торрент обмена
Сидов Пиров Скачали
1 0 182
Характеристика
Размер Файлы
11.19 GB
Релиз группа
Поделиться раздачей
Фильмы (720,1080,Blu-Ray)
Наименование: Нечто
Оригинальное наименование: The Thing
Категория: Ужасы, фантастика, триллер, детектив, ремейк, экранизация
Произведено: США, Канада, Morgan Creek Productions, Strike Entertainment
Режиссер: Маттис ван Хейниген мл.
В главных ролях: Мэри Элизабет Уинстэд, Джоэл Эдгертон, Ульрих Томсен, Эрик Кристиан Олсен, Адевале Акиннуойе-Агбадже, Пол Браунштейн, Тронд Эспен Сейм, Ким Баббс, Ёрген Лангхелле, Ян Гуннар Рёйсе, Стиг Хенрик Хофф, Кристофер Хивджу, Джо Адриан Хаавинд, Карстен Бьорнлунд, Джонатан Уолкер, Оле Мартин Он Нильсен, Майкл Браун
Краткое описание: Научная экспедиция обнаруживает в Антарктике потерпевший крушение инопланетный космический корабль. Группа отчаянных учёных проникает в его недра и неожиданно для самих себя открывает ящик Пандоры. Среди непроходимых снегов и ледяных гор, выпущенное на свободу Нечто устраивает на исследовательской станции жуткую бойню. Экранизация по произведению: Джон В. Кэмпбелл мл. «Стой, кто идёт?».
  • Видео данные: MPEG-4 AVC, 10.6 Мбит/с, 1920x800, 23.976 кадр/с
    Аудио данные: Русский (DTS, 6 ch, 1510 Кбит/с), (AC3, 2 ch, 448 Кбит/с), английский (DTS, 6 ch, 1510 Кбит/с)
    Перевод: Дублированный
    Продолжительность: 01:43:03
    Субтитры: Русские
  • Нечто (2011) BDRip 1080p Нечто (2011) BDRip 1080p Нечто (2011) BDRip 1080p
  • Уникальный идентификатор : 180635104780236555701282113023137906484 (0x87E50E4458986961AAAF3F1310597F34)
    Полное имя : B:\Торрент\The.Thing.2011.BDRip.1080p.3Rus.Eng-HDTracker.mkv
    Формат : Matroska
    Размер файла : 11,2 Гбайт
    Продолжительность : 1 ч. 43 м.
    Общий поток : 15,6 Мбит/сек
    Название фильма : The Thing (2011) HDTracker
    Дата кодирования : UTC 2013-02-18 08:49:59
    Программа кодирования : mkvmerge v5.0.1 ('Es ist Sommer') built on Oct 24 2011 19:45:06
    Библиотека кодирования : libebml v1.2.2 + libmatroska v1.3.0

    Видео
    Идентификатор : 1
    Формат : AVC
    Формат/Информация : Advanced Video Codec
    Профиль формата : High@L4.1
    Параметр CABAC формата : Да
    Параметр ReFrames формата : 5 кадры
    Режим смешивания : Header stripping
    Идентификатор кодека : V_MPEG4/ISO/AVC
    Продолжительность : 1 ч. 43 м.
    Битрейт : 10,6 Мбит/сек
    Ширина : 1920 пикс.
    Высота : 800 пикс.
    Соотношение сторон : 2,40:1
    Частота кадров : 23,976 кадр/сек
    Цветовое пространство : YUV
    Подвыборка цветности : 4:2:0
    Битовая глубина : 8 бит
    Тип развёртки : Прогрессивная
    Бит/(Пиксели*Кадры) : 0.288
    Размер потока : 7,39 Гбайт (66%)
    Заголовок : The Thing 2011
    Библиотека кодирования : x264 core 116 r2074 2641b9e
    Настройки программы : cabac=1 / ref=5 / deblock=1:-3:-3 / analyse=0x3:0x113 / me=umh / subme=10 / psy=1 / psy_rd=1.05:0.10 / mixed_ref=1 / me_range=32 / chroma_me=1 / trellis=2 / 8x8dct=1 / cqm=0 / deadzone=21,11 / fast_pskip=0 / chroma_qp_offset=-2 / threads=8 / sliced_threads=0 / nr=0 / decimate=1 / interlaced=0 / bluray_compat=0 / constrained_intra=0 / bframes=6 / b_pyramid=2 / b_adapt=2 / b_bias=0 / direct=3 / weightb=1 / open_gop=0 / weightp=2 / keyint=250 / keyint_min=23 / scenecut=40 / intra_refresh=0 / rc_lookahead=40 / rc=2pass / mbtree=0 / bitrate=10595 / ratetol=1.0 / qcomp=0.70 / qpmin=0 / qpmax=69 / qpstep=4 / cplxblur=20.0 / qblur=0.5 / vbv_maxrate=40000 / vbv_bufsize=40000 / nal_hrd=none / ip_ratio=1.40 / pb_ratio=1.30 / aq=2:0.90
    Язык : English

    Аудио #1
    Идентификатор : 2
    Формат : DTS
    Формат/Информация : Digital Theater Systems
    Режим смешивания : Header stripping
    Идентификатор кодека : A_DTS
    Продолжительность : 1 ч. 43 м.
    Вид битрейта : Постоянный
    Битрейт : 1510 Кбит/сек
    Канал(ы) : 6 канала(ов)
    Расположение каналов : Front: L C R, Side: L R, LFE
    Частота : 48,0 КГц
    Битовая глубина : 24 бит
    Метод сжатия : С потерями
    Размер потока : 1,09 Гбайт (10%)
    Заголовок : Дублированный
    Язык : Russian

    Аудио #2
    Идентификатор : 3
    Формат : DTS
    Формат/Информация : Digital Theater Systems
    Режим смешивания : Header stripping
    Идентификатор кодека : A_DTS
    Продолжительность : 1 ч. 43 м.
    Вид битрейта : Постоянный
    Битрейт : 1510 Кбит/сек
    Канал(ы) : 6 канала(ов)
    Расположение каналов : Front: L C R, Side: L R, LFE
    Частота : 48,0 КГц
    Битовая глубина : 24 бит
    Метод сжатия : С потерями
    Размер потока : 1,09 Гбайт (10%)
    Заголовок : А. Гаврилов
    Язык : Russian

    Аудио #3
    Идентификатор : 4
    Формат : AC-3
    Формат/Информация : Audio Coding 3
    Расширение режима : CM (complete main)
    Режим смешивания : Header stripping
    Идентификатор кодека : A_AC3
    Продолжительность : 1 ч. 43 м.
    Вид битрейта : Постоянный
    Битрейт : 448 Кбит/сек
    Канал(ы) : 6 канала(ов)
    Расположение каналов : Front: L C R, Side: L R, LFE
    Частота : 48,0 КГц
    Битовая глубина : 16 бит
    Метод сжатия : С потерями
    Размер потока : 330 Мбайт (3%)
    Заголовок : В. Горчаков
    Язык : Russian

    Аудио #4
    Идентификатор : 5
    Формат : DTS
    Формат/Информация : Digital Theater Systems
    Режим смешивания : Header stripping
    Идентификатор кодека : A_DTS
    Продолжительность : 1 ч. 43 м.
    Вид битрейта : Постоянный
    Битрейт : 1510 Кбит/сек
    Канал(ы) : 6 канала(ов)
    Расположение каналов : Front: L C R, Side: L R, LFE
    Частота : 48,0 КГц
    Битовая глубина : 24 бит
    Метод сжатия : С потерями
    Размер потока : 1,09 Гбайт (10%)
    Заголовок : Оригинальная англоязычная озвучка
    Язык : English

    Текст
    Идентификатор : 6
    Формат : UTF-8
    Идентификатор кодека : S_TEXT/UTF8
    Идентификатор кодека/Информация : UTF-8 Plain Text
    Язык : Russian

    Меню
    00:00:00.000 : en:Chapter 1
    00:04:31.897 : en:Chapter 2
    00:10:51.901 : en:Chapter 3
    00:14:41.422 : en:Chapter 4
    00:17:05.775 : en:Chapter 5
    00:20:39.655 : en:Chapter 6
    00:25:09.550 : en:Chapter 7
    00:32:49.634 : en:Chapter 8
    00:38:06.117 : en:Chapter 9
    00:43:02.705 : en:Chapter 10
    00:51:15.739 : en:Chapter 11
    00:55:13.185 : en:Chapter 12
    01:00:04.351 : en:Chapter 13
    01:04:51.805 : en:Chapter 14
    01:09:58.236 : en:Chapter 15
    01:14:39.517 : en:Chapter 16
    01:20:58.520 : en:Chapter 17
    01:24:46.373 : en:Chapter 18
    01:30:30.675 : en:Chapter 19
    01:34:56.316 : en:Chapter 20





    Enjoy the site? All donations are appreciated




    Free Text Host is brought to you by Dagon Design
10.0 из 10
голосов: 4
/10
/10
616759 30-07-2016, 21:41

zakaz4uck | 30-07-2016, 23:07 | Статус: Оффлайн

достойное продолжение, качну НН-ый раз smile
Информация
Посетители, находящиеся в группе Гости, не могут оставлять комментарии к данной публикации.