Панель пользователя
Регистрация

Воспользуйтесь социальными сетями для входа на https://freerutor.com

vk odnoklassniki facebook mailru yandex google
Популярное
Счетчик
Голосуй за нас
VIP на сайте
Популярное
Товары интернет магазина
загрузка...

Angry Birds в кино (2016) Blu-Ray Remux 1080p | Лицензия

Angry Birds в кино (2016) Blu-Ray Remux 1080p | Лицензия
Участники торрент обмена
Сидов Пиров Скачали
16 1 3167
Характеристика
Размер Файлы
18.83 GB
Релиз группа
Поделиться раздачей
Мультфильмы
Наименование: Angry Birds в кино
Оригинальное наименование: The Angry Birds Movie
Категория: Мультфильм, боевик, комедия, семейный
Произведено: Финляндия, США, Columbia Pictures, LStar Capital, Rovio Entertainment
Режиссер: Клэй Кэйтис, Фергал Рейли
В ролях: Питер Динклэйдж, Джейсон Судейкис, Кейт МакКиннон, Кигэн-Майкл Ки, Титус Берджесс, Шон Пенн, Билл Хейдер, Майя Рудольф, Айк Баринхолц, Дэнни МакБрайд
Краткое описание: Из-за своего буйного нрава Ред постоянно попадает в различные передряги. После очередного фонтана агрессии местный суд приговаривает его к бессрочному посещению курсов управления гневом. Между делом, на птичий остров приплывают зеленые свиньи и обманом выкрадывают у птичек все их яйца. Ред и его друзья отправляются на поиски легендарного Могучего Орла, чтобы заручиться его поддержкой и вернуть похищенное.
  • Видео данные: MPEG-4 AVC, 24.6 Mбит/с, 1920x1080
    Аудио данные: Русский (AC3, 6 ch, 384 Кбит/с), английский (DTS-HD MA, 8 ch, 2701 Кбит/с)
    Перевод: Дублированный [iTunes]
    Продолжительность: 01:37:14
    Субтитры: Русские, английские
  • Angry Birds в кино (2016) Blu-Ray Remux 1080p | Лицензия Angry Birds в кино (2016) Blu-Ray Remux 1080p | Лицензия Angry Birds в кино (2016) Blu-Ray Remux 1080p | Лицензия
  • General
    Unique ID : 208795404967052157279736422019486562421 (0x9D148842B157AE3D97D36D21CE61B875)
    Complete name : G:\Video\The.Angry.Birds.Movie.2016.D.BDREMUX.1080p.ExKinoRay.mkv
    Format : Matroska
    Format version : Version 4 / Version 2
    File size : 18.8 GiB
    Duration : 1h 37mn
    Overall bit rate mode : Variable
    Overall bit rate : 27.7 Mbps
    Movie name : The.Angry.Birds.Movie.2016.D.BDREMUX.1080p.ExKinoRay
    Encoded date : UTC 2016-07-30 14:00:01
    Writing application : mkvmerge v8.3.0 ('Over the Horizon') 64bit
    Writing library : libebml v1.3.1 + libmatroska v1.4.2

    Video
    ID : 1
    Format : AVC
    Format/Info : Advanced Video Codec
    Format profile : High@L4.1
    Format settings, CABAC : Yes
    Format settings, ReFrames : 2 frames
    Format settings, GOP : M=1, N=10
    Codec ID : V_MPEG4/ISO/AVC
    Duration : 1h 37mn
    Bit rate mode : Variable
    Bit rate : 24.6 Mbps
    Width : 1 920 pixels
    Height : 1 080 pixels
    Display aspect ratio : 16:9
    Frame rate mode : Constant
    Frame rate : 23.976 (24000/1001) fps
    Color space : YUV
    Chroma subsampling : 4:2:0
    Bit depth : 8 bits
    Scan type : Progressive
    Bits/(Pixel*Frame) : 0.496
    Stream size : 16.7 GiB (89%)
    Language : English
    Default : Yes
    Forced : No

    Audio #1
    ID : 2
    Format : AC-3
    Format/Info : Audio Coding 3
    Mode extension : CM (complete main)
    Format settings, Endianness : Big
    Codec ID : A_AC3
    Duration : 1h 37mn
    Bit rate mode : Constant
    Bit rate : 384 Kbps
    Channel(s) : 6 channels
    Channel positions : Front: L C R, Side: L R, LFE
    Sampling rate : 48.0 KHz
    Frame rate : 31.250 fps (1536 spf)
    Compression mode : Lossy
    Delay relative to video : 960ms
    Stream size : 267 MiB (1%)
    Title : DUB [iTunes]
    Language : Russian
    Default : Yes
    Forced : No

    Audio #2
    ID : 3
    Format : DTS
    Format/Info : Digital Theater Systems
    Format profile : MA / Core
    Mode : 16
    Format settings, Endianness : Big
    Codec ID : A_DTS
    Duration : 1h 37mn
    Bit rate mode : Variable / Constant
    Bit rate : 2 701 Kbps / 1 509 Kbps
    Channel(s) : 8 channels / 6 channels
    Channel positions : Front: L C R, Side: L R, Back: L R, LFE / Front: L C R, Side: L R, LFE
    Sampling rate : 48.0 KHz
    Frame rate : 93.750 fps (512 spf)
    Bit depth : 16 bits
    Compression mode : Lossless / Lossy
    Stream size : 1.83 GiB (10%)
    Title : Original
    Language : English
    Default : No
    Forced : No

    Text #1
    ID : 4
    Format : UTF-8
    Codec ID : S_TEXT/UTF8
    Codec ID/Info : UTF-8 Plain Text
    Duration : 1h 29mn
    Bit rate : 99 bps
    Count of elements : 1579
    Stream size : 65.1 KiB (0%)
    Title : Full
    Language : Russian
    Default : No
    Forced : No

    Text #2
    ID : 5
    Format : UTF-8
    Codec ID : S_TEXT/UTF8
    Codec ID/Info : UTF-8 Plain Text
    Duration : 1h 29mn
    Bit rate : 64 bps
    Count of elements : 1518
    Stream size : 42.0 KiB (0%)
    Title : Full
    Language : English
    Default : No
    Forced : No

    Text #3
    ID : 6
    Format : UTF-8
    Codec ID : S_TEXT/UTF8
    Codec ID/Info : UTF-8 Plain Text
    Duration : 1h 32mn
    Bit rate : 89 bps
    Count of elements : 2275
    Stream size : 60.5 KiB (0%)
    Title : SDH
    Language : English
    Default : No
    Forced : No

    Menu
    00:00:00.000 : en:
    00:06:26.427 : en:
    00:09:26.857 : en:
    00:15:03.193 : en:
    00:21:33.500 : en:
    00:26:52.235 : en:
    00:32:34.744 : en:
    00:36:51.167 : en:
    00:42:17.952 : en:
    00:47:27.261 : en:
    00:54:37.816 : en:
    00:59:26.229 : en:
    01:06:18.974 : en:
    01:10:21.508 : en:
    01:17:45.118 : en:
    01:23:17.492 : en:
    01:28:06.864 : en:
    01:33:28.811 : en:
    01:42:20.759 : en:
    01:44:26.426 : en:
10.0 из 10
голосов: 4
/10
/10
616759 30-07-2016, 17:54
Информация
Посетители, находящиеся в группе Гости, не могут оставлять комментарии к данной публикации.