Панель пользователя
Регистрация

Воспользуйтесь социальными сетями для входа на https://freerutor.com

vk odnoklassniki facebook mailru yandex google
Популярное
Счетчик
Голосуй за нас
VIP на сайте
Популярное
Товары интернет магазина
загрузка...

Наркотрафик (1-24 серии из 24) (2011) HDTVRip-AVC

Наркотрафик (1-24 серии из 24) (2011) HDTVRip-AVC
Участники торрент обмена
Сидов Пиров Скачали
0 2 144
Характеристика
Размер Файлы
20.76 GB
Релиз группа
Поделиться раздачей
Русские сериалы
Наименование: Наркотрафик
Произведено: Россия
Категория: криминал
Режиссер постановщик: Николай Борц, Наталия Бучнева, Андрей Балашов
В главных ролях: Роман Грибков, Сергей Барковский, Денис Синявский, Константин Воробьёв, Настя Задорожная, Тара Амирханова, Александр Орловский, Олег Алмазов, Андрей Полищук, Максим Студеновский
Краткое описание: В России все больше жертв нового наркотика. «Дикий мед» - сильнейший допинг, способный даже «ботаника» наделить нечеловеческой силой и агрессивностью хищника. На вид - обычный пластырь. Привыкание - с первой дозы. Как оказалось, это секретная разработка еще времен СССР, которая теперь она попала в руки преступников. О них ничего не известно - преступная организация возникла как будто из ниоткуда, но размах впечатляет: ее боятся местные наркобароны, она стремиться завоевать международный рынок. Это могущественный, расчетливый, жестокий противник. Чтобы обезвредить его, создается специальная группа.
  • Видео данные: MPEG-4 AVC, 2500 Кбит/с, 1024x576
    Аудио данные: Русский (AC3, 2 ch, 192 Кбит/с)
    Перевод: Оригинал (Русский)
    Продолжительность: 24 x ~ 00:45:00
  • Наркотрафик (1-24 серии из 24) (2011) HDTVRip-AVC Наркотрафик (1-24 серии из 24) (2011) HDTVRip-AVC Наркотрафик (1-24 серии из 24) (2011) HDTVRip-AVC
  • Общее
    Уникальный идентификатор : 195174257017562752184731094594819329574 (0x92D531D111419E1E8E566CE4754A0E26)
    Полное имя : F:\Фильмы торренты\Narkotrafik.2011.HDTVRip.(AVC).Nikolspup\Narkotrafik.(01.seriya.iz.24).2011.HDTVRip.(AVC).Nikolspup.mkv
    Формат : Matroska
    Версия формата : Version 2
    Размер файла : 874 Мбайт
    Продолжительность : 45 м.
    Общий поток : 2693 Кбит/сек
    Дата кодирования : UTC 2016-07-27 06:53:07
    Программа кодирования : mkvmerge v7.8.0 ('River Man') 32bit built on Apr 3 2015 12:11:22
    Библиотека кодирования : libebml v1.3.1 + libmatroska v1.4.2

    Видео
    Идентификатор : 1
    Формат : AVC
    Формат/Информация : Advanced Video Codec
    Профиль формата : High@L4.1
    Параметр CABAC формата : Да
    Параметр ReFrames формата : 10 кадров
    Идентификатор кодека : V_MPEG4/ISO/AVC
    Продолжительность : 45 м.
    Битрейт : 2500 Кбит/сек
    Ширина : 1024 пикселя
    Высота : 576 пикселей
    Соотношение сторон : 16:9
    Режим частоты кадров : Постоянный
    Частота кадров : 25,000 кадров/сек
    Цветовое пространство : YUV
    Субдискретизация насыщенности : 4:2:0
    Битовая глубина : 8 бит
    Тип развёртки : Прогрессивная
    Бит/(Пиксели*Кадры) : 0.170
    Размер потока : 794 Мбайт (91%)
    Библиотека кодирования : x264 core 146 r2538 121396c
    Настройки программы : cabac=1 / ref=10 / deblock=1:-3:-3 / analyse=0x3:0x113 / me=umh / subme=11 / psy=1 / psy_rd=1.00:0.20 / mixed_ref=1 / me_range=32 / chroma_me=1 / trellis=2 / 8x8dct=1 / cqm=0 / deadzone=21,11 / fast_pskip=0 / chroma_qp_offset=-3 / threads=4 / lookahead_threads=1 / sliced_threads=0 / nr=0 / decimate=0 / interlaced=0 / bluray_compat=0 / constrained_intra=0 / bframes=12 / b_pyramid=2 / b_adapt=2 / b_bias=0 / direct=3 / weightb=1 / open_gop=0 / weightp=2 / keyint=250 / keyint_min=25 / scenecut=40 / intra_refresh=0 / rc_lookahead=60 / rc=2pass / mbtree=0 / bitrate=2500 / ratetol=1.0 / qcomp=0.60 / qpmin=0 / qpmax=69 / qpstep=4 / cplxblur=20.0 / qblur=0.5 / vbv_maxrate=14000 / vbv_bufsize=14000 / nal_hrd=none / filler=0 / ip_ratio=1.40 / pb_ratio=1.30 / aq=3:0.80
    Default : Да
    Forced : Нет
    Цветовой диапазон : Limited
    Основные цвета : BT.709
    Характеристики трансфера : BT.709
    Коэффициенты матрицы : BT.709

    Аудио
    Идентификатор : 2
    Формат : AC-3
    Формат/Информация : Audio Coding 3
    Расширение режима : CM (complete main)
    Параметр Endianness формата : Big
    Идентификатор кодека : A_AC3
    Продолжительность : 45 м.
    Вид битрейта : Постоянный
    Битрейт : 192 Кбит/сек
    Каналы : 2 канала
    Расположение каналов : Front: L R
    Частота : 48,0 КГц
    Частота кадров : 31,250 кадров/сек (1536 spf)
    Метод сжатия : С потерями
    Размер потока : 62,3 Мбайт (7%)
    Default : Да
    Forced : Нет
8.0 из 10
голосов: 9
/10
/10
Раздачу отредактировал: grab777 - 20-08-2016, 09:35
По причине: (+24 серия!)
grab777 20-08-2016, 09:35

lyusietta | 1-09-2016, 13:08 | Статус: Оффлайн

ФИЛЬМ ПОНРАВИЛСЯ! СПАСИБО!
Информация
Посетители, находящиеся в группе Гости, не могут оставлять комментарии к данной публикации.