Панель пользователя
Регистрация

Воспользуйтесь социальными сетями для входа на https://freerutor.com

vk odnoklassniki facebook mailru yandex google
Популярное
Счетчик
Голосуй за нас
VIP на сайте
Популярное
Товары интернет магазина
загрузка...

Белоснежка и Охотник 2 (2016) BD-Remux 1080p | Расширeнная версия | Лицензия

Белоснежка и Охотник 2 (2016) BD-Remux 1080p | Расширeнная версия | Лицензия
Участники торрент обмена
Сидов Пиров Скачали
0 0 71
Характеристика
Размер Файлы
25.67 GB
Релиз группа
Поделиться раздачей
Фильмы (720,1080,Blu-Ray)
Наименование: Белоснежка и Охотник 2
Оригинальное наименование: The Huntsman: Winter's War
Произведено: США
Категория: фэнтези, боевик, драма, приключения
Режиссер постановщик: Седрик Николя-Троян
В главных ролях: Крис Хемсворт, Шарлиз Терон, Джессика Честейн, Эмили Блант, Ник Фрост, Роб Брайдон, Шеридан Смит, Александра Роуч, Сопе Дирису, Сэм Хэзелдайн
Краткое описание: Когда любовь уходит, сердце прекрасной девы обращается в лед. И даже сотни королевств не смогут сдержать поступь ее несметного воинства. Лишь Охотник не ведает страха. Сквозь проклятый лес он идет навстречу своей судьбе.
  • Видео данные: MPEG-4 AVC, 25.3 Мбит/с, 1920x1080
    Аудио данные: Русский (DTS, 6 ch, 768 Кбит/с), (AC3, 6 ch, 640 Кбит/с), английский (DTS:X MA, 8 ch, 3840 Кбит/с)
    Перевод: Дублированный [Лицензия]
    Субтитры: Русские, английские
    Продолжительность: 02:00:10
  • Белоснежка и Охотник 2 (2016) BD-Remux 1080p | Расширeнная версия | Лицензия Белоснежка и Охотник 2 (2016) BD-Remux 1080p | Расширeнная версия | Лицензия Белоснежка и Охотник 2 (2016) BD-Remux 1080p | Расширeнная версия | Лицензия
  • General
    Unique ID : 227909772050363282642806020881972133904 (0xAB75D35169F06801B9148F2D5F870010)
    Complete name : G:VideoНовая папкаThe.Huntsman.Winters.War.2016.Extended.Lic.BDREMUX.1080p.ExKinoRay.mkv
    Format : Matroska
    Format version : Version 4 / Version 2
    File size : 25.7 GiB
    Duration : 2h 0mn
    Overall bit rate mode : Variable
    Overall bit rate : 30.6 Mbps
    Movie name : The.Huntsman.Winters.War.2016.Extended.Lic.BDREMUX.1080p.ExKinoRay
    Encoded date : UTC 2016-08-07 23:33:17
    Writing application : mkvmerge v8.3.0 ('Over the Horizon') 64bit
    Writing library : libebml v1.3.1 + libmatroska v1.4.2

    Video
    ID : 1
    Format : AVC
    Format/Info : Advanced Video Codec
    Format profile : High@L4.1
    Format settings, CABAC : Yes
    Format settings, ReFrames : 4 frames
    Format settings, GOP : M=3, N=12
    Codec ID : V_MPEG4/ISO/AVC
    Duration : 2h 0mn
    Bit rate mode : Variable
    Bit rate : 25.3 Mbps
    Maximum bit rate : 30.0 Mbps
    Width : 1 920 pixels
    Height : 1 080 pixels
    Display aspect ratio : 16:9
    Frame rate mode : Constant
    Frame rate : 23.976 (23976/1000) fps
    Original frame rate : 23.976 (24000/1001) fps
    Color space : YUV
    Chroma subsampling : 4:2:0
    Bit depth : 8 bits
    Scan type : Progressive
    Bits/(Pixel*Frame) : 0.509
    Stream size : 21.2 GiB (83%)
    Language : English
    Default : Yes
    Forced : No

    Audio #1
    ID : 2
    Format : DTS
    Format/Info : Digital Theater Systems
    Mode : 16
    Format settings, Endianness : Big
    Codec ID : A_DTS
    Duration : 2h 0mn
    Bit rate mode : Constant
    Bit rate : 768 Kbps
    Channel(s) : 6 channels
    Channel positions : Front: L C R, Side: L R, LFE
    Sampling rate : 48.0 KHz
    Frame rate : 93.750 fps (512 spf)
    Bit depth : 24 bits
    Compression mode : Lossy
    Stream size : 660 MiB (3%)
    Title : DUB-DTS [Blu-Ray EUR]
    Language : Russian
    Default : Yes
    Forced : No

    Audio #2
    ID : 3
    Format : AC-3
    Format/Info : Audio Coding 3
    Mode extension : CM (complete main)
    Format settings, Endianness : Big
    Codec ID : A_AC3
    Duration : 2h 0mn
    Bit rate mode : Constant
    Bit rate : 640 Kbps
    Channel(s) : 6 channels
    Channel positions : Front: L C R, Side: L R, LFE
    Sampling rate : 48.0 KHz
    Frame rate : 31.250 fps (1536 spf)
    Compression mode : Lossy
    Stream size : 550 MiB (2%)
    Title : DUB-AC3 [Blu-Ray EUR]
    Language : Russian
    Default : No
    Forced : No

    Audio #3
    ID : 4
    Format : DTS
    Format/Info : Digital Theater Systems
    Format profile : X / MA / Core
    Mode : 16
    Format settings, Endianness : Big
    Codec ID : A_DTS
    Duration : 2h 0mn
    Bit rate mode : Variable / Variable / Constant
    Bit rate : 3 840 Kbps / 3 840 Kbps / 1 509 Kbps
    Channel(s) : Object Based / 8 channels / 6 channels
    Channel positions : Object Based / Front: L C R, Side: L R, Back: L R, LFE / Front: L C R, Side: L R, LFE
    Sampling rate : / 48.0 KHz / 48.0 KHz
    Frame rate : 93.750 fps (512 spf)
    Bit depth : / 24 bits / 24 bits
    Compression mode : / Lossless / Lossy
    Stream size : 3.24 GiB (13%)
    Title : Original
    Language : English
    Default : No
    Forced : No

    Text #1
    ID : 5
    Format : UTF-8
    Codec ID : S_TEXT/UTF8
    Codec ID/Info : UTF-8 Plain Text
    Duration : 1h 59mn
    Bit rate : 57 bps
    Count of elements : 1100
    Stream size : 50.0 KiB (0%)
    Title : Full
    Language : Russian
    Default : No
    Forced : No

    Text #2
    ID : 6
    Format : UTF-8
    Codec ID : S_TEXT/UTF8
    Codec ID/Info : UTF-8 Plain Text
    Duration : 1h 50mn
    Bit rate : 36 bps
    Count of elements : 1139
    Stream size : 29.1 KiB (0%)
    Title : Full
    Language : English
    Default : No
    Forced : No

    Text #3
    ID : 7
    Format : UTF-8
    Codec ID : S_TEXT/UTF8
    Codec ID/Info : UTF-8 Plain Text
    Duration : 1h 49mn
    Bit rate : 41 bps
    Count of elements : 1323
    Stream size : 33.0 KiB (0%)
    Title : SDH
    Language : English
    Default : No
    Forced : No

    Menu
    00:00:00.000 : en:00:00:00.000
    00:06:26.428 : en:00:06:26.428
    00:09:26.858 : en:00:09:26.858
    00:15:03.194 : en:00:15:03.194
    00:21:33.501 : en:00:21:33.501
    00:30:17.858 : en:00:30:17.858
    00:36:08.166 : en:00:36:08.166
    00:40:55.661 : en:00:40:55.661
    00:46:56.439 : en:00:46:56.439
    00:52:05.748 : en:00:52:05.748
    00:59:35.530 : en:00:59:35.530
    01:04:23.943 : en:01:04:23.943
    01:11:16.689 : en:01:11:16.689
    01:15:19.223 : en:01:15:19.223
    01:22:42.833 : en:01:22:42.833
    01:28:15.206 : en:01:28:15.206
    01:33:58.007 : en:01:33:58.007
    01:39:21.956 : en:01:39:21.956
    01:48:13.904 : en:01:48:13.904
    01:50:19.571 : en:01:50:19.571
10.0 из 10
голосов: 1
/10
/10
grab777 29-07-2016, 05:27
Информация
Посетители, находящиеся в группе Гости, не могут оставлять комментарии к данной публикации.