Панель пользователя
Регистрация

Воспользуйтесь социальными сетями для входа на https://freerutor.com

vk odnoklassniki facebook mailru yandex google
Популярное
Счетчик
Голосуй за нас
VIP на сайте
Популярное
Товары интернет магазина
загрузка...

Белоснежка и Охотник 2 (2016) BDRip 1080p | Расширeнная версия | Лицензия

Белоснежка и Охотник 2 (2016) BDRip 1080p | Расширeнная версия | Лицензия
Участники торрент обмена
Сидов Пиров Скачали
10 0 746
Характеристика
Размер Файлы
11.51 GB
Релиз группа
Поделиться раздачей
Фильмы (720,1080,Blu-Ray)
Наименование: Белоснежка и Охотник 2
Оригинальное наименование: The Huntsman: Winter's War
Произведено: США
Категория: фэнтези, боевик, драма, приключения
Режиссер постановщик: Седрик Николя-Троян
В главных ролях: Крис Хемсворт, Шарлиз Терон, Джессика Честейн, Эмили Блант, Ник Фрост, Роб Брайдон, Шеридан Смит, Александра Роуч, Сопе Дирису, Сэм Хэзелдайн
Краткое описание: Когда любовь уходит, сердце прекрасной девы обращается в лед. И даже сотни королевств не смогут сдержать поступь ее несметного воинства. Лишь Охотник не ведает страха. Сквозь проклятый лес он идет навстречу своей судьбе.
  • Видео данные: MPEG-4 AVC, 10.8 Мбит/с, 1920x804
    Аудио данные: Русский (AC3, 6 ch, 640 Кбит/с), (DTS, 6 ch, 768 Кбит/с), английский (DTS, 6 ch, 1510 Кбит/с)
    Перевод: Дублированный [лицензия]
    Субтитры: Русские, английские
    Продолжительность: 02:00:10
    Расширенная версия, длиннее театральной на ~7 минут! Расширенные сцены переведены (дубляж).
  • Белоснежка и Охотник 2 (2016) BDRip 1080p | Расширeнная версия | Лицензия Белоснежка и Охотник 2 (2016) BDRip 1080p | Расширeнная версия | Лицензия Белоснежка и Охотник 2 (2016) BDRip 1080p | Расширeнная версия | Лицензия
  • General
    Unique ID : 246954971756288748503742122845348014057 (0xB9C9CC29188E935EBD37094721A7A7E9)
    Complete name : G:VideoНовая папкаThe.Huntsman.Winters.War.2016.Extended.Lic.BDRip.1080p.ExKinoRay.mkv
    Format : Matroska
    Format version : Version 4 / Version 2
    File size : 11.5 GiB
    Duration : 2h 0mn
    Overall bit rate : 13.7 Mbps
    Movie name : The.Huntsman.Winters.War.2016.Extended.Lic.BDRip.1080p.ExKinoRay
    Encoded date : UTC 2016-08-07 23:23:42
    Writing application : mkvmerge v8.3.0 ('Over the Horizon') 64bit
    Writing library : libebml v1.3.1 + libmatroska v1.4.2

    Video
    ID : 1
    Format : AVC
    Format/Info : Advanced Video Codec
    Format profile : High@L4.1
    Format settings, CABAC : Yes
    Format settings, ReFrames : 5 frames
    Codec ID : V_MPEG4/ISO/AVC
    Duration : 2h 0mn
    Bit rate : 10.8 Mbps
    Width : 1 920 pixels
    Height : 804 pixels
    Display aspect ratio : 2.40:1
    Frame rate mode : Constant
    Frame rate : 23.976 (24000/1001) fps
    Color space : YUV
    Chroma subsampling : 4:2:0
    Bit depth : 8 bits
    Scan type : Progressive
    Bits/(Pixel*Frame) : 0.292
    Stream size : 9.06 GiB (79%)
    Writing library : x264 core 142 r2431+42 c69a006 tMod [8-bit@all X86_64]
    Encoding settings : cabac=1 / ref=5 / deblock=1:-3:-3 / analyse=0x3:0x133 / me=umh / subme=11 / psy=1 / fade_compensate=0.00 / psy_rd=0.90:0.00 / mixed_ref=1 / me_range=32 / chroma_me=1 / trellis=2 / 8x8dct=1 / cqm=0 / deadzone=21,11 / fast_pskip=0 / chroma_qp_offset=-2 / threads=12 / lookahead_threads=2 / sliced_threads=0 / nr=0 / decimate=0 / interlaced=0 / bluray_compat=0 / constrained_intra=0 / fgo=0 / bframes=8 / b_pyramid=2 / b_adapt=2 / b_bias=0 / direct=3 / weightb=1 / open_gop=0 / weightp=2 / keyint=240 / keyint_min=23 / scenecut=40 / intra_refresh=0 / rc_lookahead=60 / rc=crf / mbtree=0 / crf=16.5000 / qcomp=0.60 / qpmin=0:0:0 / qpmax=69:69:69 / qpstep=4 / vbv_maxrate=40000 / vbv_bufsize=30000 / crf_max=0.0 / nal_hrd=none / filler=0 / ip_ratio=1.40 / pb_ratio=1.30 / aq=1:0.90 / aq-sensitivity=10.00 / aq-factor=1.00:1.00:1.00 / aq2=0 / aq3=0
    Language : English
    Default : Yes
    Forced : No

    Audio #1
    ID : 2
    Format : AC-3
    Format/Info : Audio Coding 3
    Mode extension : CM (complete main)
    Format settings, Endianness : Big
    Codec ID : A_AC3
    Duration : 2h 0mn
    Bit rate mode : Constant
    Bit rate : 640 Kbps
    Channel(s) : 6 channels
    Channel positions : Front: L C R, Side: L R, LFE
    Sampling rate : 48.0 KHz
    Frame rate : 31.250 fps (1536 spf)
    Compression mode : Lossy
    Stream size : 550 MiB (5%)
    Title : DUB-AC3 [Blu-Ray EUR]
    Language : Russian
    Default : Yes
    Forced : No

    Audio #2
    ID : 3
    Format : DTS
    Format/Info : Digital Theater Systems
    Mode : 16
    Format settings, Endianness : Big
    Codec ID : A_DTS
    Duration : 2h 0mn
    Bit rate mode : Constant
    Bit rate : 768 Kbps
    Channel(s) : 6 channels
    Channel positions : Front: L C R, Side: L R, LFE
    Sampling rate : 48.0 KHz
    Frame rate : 93.750 fps (512 spf)
    Bit depth : 24 bits
    Compression mode : Lossy
    Stream size : 660 MiB (6%)
    Title : DUB-DTS [Blu-Ray EUR]
    Language : Russian
    Default : No
    Forced : No

    Audio #3
    ID : 4
    Format : DTS
    Format/Info : Digital Theater Systems
    Mode : 16
    Format settings, Endianness : Big
    Codec ID : A_DTS
    Duration : 2h 0mn
    Bit rate mode : Constant
    Bit rate : 1 509 Kbps
    Channel(s) : 6 channels
    Channel positions : Front: L C R, Side: L R, LFE
    Sampling rate : 48.0 KHz
    Frame rate : 93.750 fps (512 spf)
    Bit depth : 24 bits
    Compression mode : Lossy
    Stream size : 1.27 GiB (11%)
    Title : Original
    Language : English
    Default : No
    Forced : No

    Text #1
    ID : 5
    Format : UTF-8
    Codec ID : S_TEXT/UTF8
    Codec ID/Info : UTF-8 Plain Text
    Duration : 1h 59mn
    Bit rate : 57 bps
    Count of elements : 1100
    Stream size : 50.0 KiB (0%)
    Title : Full
    Language : Russian
    Default : No
    Forced : No

    Text #2
    ID : 6
    Format : UTF-8
    Codec ID : S_TEXT/UTF8
    Codec ID/Info : UTF-8 Plain Text
    Duration : 1h 50mn
    Bit rate : 36 bps
    Count of elements : 1139
    Stream size : 29.1 KiB (0%)
    Title : Full
    Language : English
    Default : No
    Forced : No

    Text #3
    ID : 7
    Format : UTF-8
    Codec ID : S_TEXT/UTF8
    Codec ID/Info : UTF-8 Plain Text
    Duration : 1h 49mn
    Bit rate : 41 bps
    Count of elements : 1323
    Stream size : 33.0 KiB (0%)
    Title : SDH
    Language : English
    Default : No
    Forced : No

    Menu
    00:00:00.000 : en:00:00:00.000
    00:06:26.428 : en:00:06:26.428
    00:09:26.858 : en:00:09:26.858
    00:15:03.194 : en:00:15:03.194
    00:21:33.501 : en:00:21:33.501
    00:30:17.858 : en:00:30:17.858
    00:36:08.166 : en:00:36:08.166
    00:40:55.661 : en:00:40:55.661
    00:46:56.439 : en:00:46:56.439
    00:52:05.748 : en:00:52:05.748
    00:59:35.530 : en:00:59:35.530
    01:04:23.943 : en:01:04:23.943
    01:11:16.689 : en:01:11:16.689
    01:15:19.223 : en:01:15:19.223
    01:22:42.833 : en:01:22:42.833
    01:28:15.206 : en:01:28:15.206
    01:33:58.007 : en:01:33:58.007
    01:39:21.956 : en:01:39:21.956
    01:48:13.904 : en:01:48:13.904
    01:50:19.571 : en:01:50:19.571
10.0 из 10
голосов: 5
/10
/10
foster720p 6-08-2016, 00:04
Информация
Посетители, находящиеся в группе Гости, не могут оставлять комментарии к данной публикации.