Панель пользователя
Регистрация

Воспользуйтесь социальными сетями для входа на https://freerutor.com

vk odnoklassniki facebook mailru yandex google
Популярное
Счетчик
Голосуй за нас
VIP на сайте
Популярное
Товары интернет магазина
загрузка...

Славные парни (2016) WEB-DLRip-AVC | Лицензия

Славные парни (2016) WEB-DLRip-AVC | Лицензия
Участники торрент обмена
Сидов Пиров Скачали
3 0 1936
Характеристика
Размер Файлы
1.78 GB
Релиз группа
Поделиться раздачей
Фильмы (AVC)
Наименование: Славные парни
Оригинальное наименование: The Nice Guys
Категория: Криминал, комедия
Произведено: США, Великобритания / Bloom, Lip Sync Productions, Misty Mountains
Режиссер постановщик: Шейн Блэк
В главных ролях: Райан Гослинг, Ким Бейсингер, Рассел Кроу, Энгаури Райс, Мэтт Бомер, Маргарет Куэлли, Йайа ДаКоста, Кит Дэвид, Бо Напп, Лоис Смит
Краткое описание: Что бывает, когда напарником брутального костолома становится субтильный лопух? Наемный охранник Джексон Хили и частный детектив Холланд Марч вынуждены работать в паре, чтобы распутать плевое дело о пропавшей девушке, которое оборачивается преступлением века. Смогут ли парни разгадать сложный ребус, если у каждого из них — свои, весьма индивидуальные методы…
  • Видео данные: MPEG-4 AVC, 1902 Кбит/с, 1024x428
    Аудио данные: Русский (AC3, 6 ch, 384 Кбит/с)
    Перевод: Дублированный [iTunes]
    Продолжительность: 01:51:04
  • Славные парни (2016) WEB-DLRip-AVC | Лицензия Славные парни (2016) WEB-DLRip-AVC | Лицензия Славные парни (2016) WEB-DLRip-AVC | Лицензия
  • Общее
    Уникальный идентификатор : 180567373246250968996984160513825100655 (0x87D802D832DD0ECD96A2D33A5C92D36F)
    Полное имя : D:ЗагрузкиThe.Nice.Guys.2016.x264.WEB-DLRip.AVC.ExKinoRay.mkv
    Формат : Matroska
    Версия формата : Version 2
    Размер файла : 1,78 Гбайт
    Продолжительность : 1 ч. 51 м.
    Общий поток : 2288 Кбит/сек
    Название фильма : Славные парни.2016.Rip by: ollan
    Дата кодирования : UTC 2016-07-28 22:59:48
    Программа кодирования : mkvmerge v5.6.0 ('Kenya Kane') built on May 27 2012 16:44:04
    Библиотека кодирования : libebml v1.2.3 + libmatroska v1.3.0
    Обложка : Yes
    Attachments : Cover - The.Nice.Guys.png

    Видео
    Идентификатор : 1
    Формат : AVC
    Формат/Информация : Advanced Video Codec
    Профиль формата : High@L4.1
    Параметр CABAC формата : Да
    Параметр ReFrames формата : 12 кадров
    Идентификатор кодека : V_MPEG4/ISO/AVC
    Продолжительность : 1 ч. 51 м.
    Битрейт : 1902 Кбит/сек
    Ширина : 1024 пикселя
    Высота : 428 пикселей
    Соотношение сторон : 2,40:1
    Режим частоты кадров : Постоянный
    Частота кадров : 25,000 кадров/сек
    Цветовое пространство : YUV
    Субдискретизация насыщенности : 4:2:0
    Битовая глубина : 8 бит
    Тип развёртки : Прогрессивная
    Бит/(Пиксели*Кадры) : 0.174
    Размер потока : 1,44 Гбайт (81%)
    Библиотека кодирования : x264 core 146 r2538 121396c
    Настройки программы : cabac=1 / ref=12 / deblock=1:-3:-3 / analyse=0x3:0x133 / me=umh / subme=11 / psy=1 / psy_rd=1.00:0.10 / mixed_ref=1 / me_range=48 / chroma_me=1 / trellis=2 / 8x8dct=1 / cqm=0 / deadzone=21,11 / fast_pskip=0 / chroma_qp_offset=-3 / threads=12 / lookahead_threads=3 / sliced_threads=0 / nr=0 / decimate=0 / interlaced=0 / bluray_compat=0 / constrained_intra=0 / bframes=10 / b_pyramid=2 / b_adapt=2 / b_bias=0 / direct=3 / weightb=1 / open_gop=0 / weightp=2 / keyint=250 / keyint_min=25 / scenecut=40 / intra_refresh=0 / rc_lookahead=40 / rc=2pass / mbtree=0 / bitrate=1902 / ratetol=1.0 / qcomp=0.60 / qpmin=0 / qpmax=69 / qpstep=4 / cplxblur=20.0 / qblur=0.5 / vbv_maxrate=50000 / vbv_bufsize=62500 / nal_hrd=none / filler=0 / ip_ratio=1.40 / pb_ratio=1.30 / aq=1:1.00
    Язык : English
    Default : Да
    Forced : Нет

    Аудио
    Идентификатор : 2
    Формат : AC-3
    Формат/Информация : Audio Coding 3
    Расширение режима : CM (complete main)
    Параметр Endianness формата : Big
    Идентификатор кодека : A_AC3
    Продолжительность : 1 ч. 51 м.
    Вид битрейта : Постоянный
    Битрейт : 384 Кбит/сек
    Каналы : 6 каналов
    Расположение каналов : Front: L C R, Side: L R, LFE
    Частота : 48,0 КГц
    Частота кадров : 31,250 кадров/сек (1536 spf)
    Метод сжатия : С потерями
    Размер потока : 305 Мбайт (17%)
    Заголовок : Дублированный (iTunes Russia)
    Язык : Russian
    Default : Да
    Forced : Нет

    Меню
    00:00:00.000 : en:Chapter 01
    00:05:11.920 : en:Chapter 02
    00:10:32.080 : en:Chapter 03
    00:15:49.320 : en:Chapter 04
    00:21:52.600 : en:Chapter 05
    00:27:59.160 : en:Chapter 06
    00:33:26.560 : en:Chapter 07
    00:39:43.040 : en:Chapter 08
    00:45:19.960 : en:Chapter 09
    00:50:40.440 : en:Chapter 10
    00:56:20.680 : en:Chapter 11
    01:03:01.800 : en:Chapter 12
    01:08:38.720 : en:Chapter 13
    01:14:35.520 : en:Chapter 14
    01:21:06.640 : en:Chapter 15
    01:27:33.440 : en:Chapter 16
    01:33:37.520 : en:Chapter 17
    01:39:12.280 : en:Chapter 18
9.2 из 10
голосов: 10
/10
/10
Раздачу отредактировал: grab777 - 29-07-2016, 03:41
По причине: (С лучшими настройками)
grab777 29-07-2016, 03:41

msobotka | 29-07-2016, 02:37 | Статус: Оффлайн

Блэк, наверно, все-таки сценарист, а уж потом режиссер. В данном случае сценарист и режиссер оба хороши. Отсутствие внятной идеи, проходные персонажи, которые в принципе не нужны, скользкая тема порнографии, которая, конечно, потянет в пошлость, а как же без нее. Комедия, есть элементы, но в целом это не совсем комедия... И самое главное, где же гладиатор? Что с ним стало? Вряд ли Кроу специально поправлялся для этой роли, а поэтому грустно на него смотреть. Ну и Бейсингер в фильме, пятое колесо у телеги. В целом проходное, не замысловатое, пустое смешилово местами....
Информация
Посетители, находящиеся в группе Гости, не могут оставлять комментарии к данной публикации.