Панель пользователя
Регистрация

Воспользуйтесь социальными сетями для входа на https://freerutor.com

vk odnoklassniki facebook mailru yandex google
Популярное
Счетчик
Голосуй за нас
VIP на сайте
Популярное
Товары интернет магазина
загрузка...

Славные парни (2016) BDRip 720p | Лицензия, Кубик в Кубе

Славные парни (2016) BDRip 720p |   Лицензия, Кубик в Кубе
Участники торрент обмена
Сидов Пиров Скачали
19 0 888
Характеристика
Размер Файлы
5.65 GB
Поделиться раздачей
Фильмы (720,1080,Blu-Ray)
Наименование: Славные парни
Оригинальное наименование: The Nice Guys
Произведено: США, Великобритания
Категория: криминал, комедия
Режиссер постановщик: Шейн Блэк
В главных ролях: Райан Гослинг, Ким Бейсингер, Рассел Кроу, Энгаури Райс, Мэтт Бомер, Маргарет Куэлли, Йайа ДаКоста, Кит Дэвид, Бо Напп, Лоис Смит
Краткое описание: Что бывает, когда напарником брутального костолома становится субтильный лопух? Наемный охранник Джексон Хили и частный детектив Холланд Марч вынуждены работать в паре, чтобы распутать плевое дело о пропавшей девушке, которое оборачивается преступлением века. Смогут ли парни разгадать сложный ребус, если у каждого из них - свои, весьма индивидуальные методы...
  • Видео данные: MPEG-4 AVC, 4920 kb/s, 1280x534
    Аудио данные: Russian: / English: AC3, 640 kb/s (6 ch)
    Перевод: Профессиональный (двухголосый, закадровый) - [Кубик в Кубе] без цензуры / Дублированный [Лицензия]
    Субтитры: Русские (full), английские (full, SDH)
    Продолжительность: 01:55:57
    Славные парни (2016) BDRip 720p |   Лицензия, Кубик в Кубе
  • Славные парни (2016) BDRip 720p |   Лицензия, Кубик в Кубе Славные парни (2016) BDRip 720p |   Лицензия, Кубик в Кубе Славные парни (2016) BDRip 720p |   Лицензия, Кубик в Кубе
  • Общее
    Уникальный идентификатор : 251420920001089885464211658625567933351 (0xBD25E868B26B4C8683BBEAD7EBFFC3A7)
    Полное имя : D:\загрузки\The.Nice.Guys.2016.D.KvK.720p.BluRay.mkv
    Формат : Matroska
    Версия формата : Version 2
    Размер файла : 5,65 Гбайт
    Продолжительность : 1 ч. 55 м.
    Общий поток : 6977 Кбит/сек
    Дата кодирования : UTC 2016-09-30 21:53:18
    Программа кодирования : mkvmerge v7.8.0 ('River Man') 32bit built on Apr 3 2015 12:11:22
    Библиотека кодирования : libebml v1.3.1 + libmatroska v1.4.2

    Видео
    Идентификатор : 1
    Формат : AVC
    Формат/Информация : Advanced Video Codec
    Профиль формата : High@L4.1
    Параметр CABAC формата : Да
    Параметр ReFrames формата : 12 кадров
    Идентификатор кодека : V_MPEG4/ISO/AVC
    Продолжительность : 1 ч. 55 м.
    Битрейт : 4918 Кбит/сек
    Ширина : 1280 пикселей
    Высота : 534 пикселя
    Соотношение сторон : 2,40:1
    Режим частоты кадров : Постоянный
    Частота кадров : 23,976 кадра/сек
    Цветовое пространство : YUV
    Субдискретизация насыщенности : 4:2:0
    Битовая глубина : 8 бит
    Тип развёртки : Прогрессивная
    Бит/(Пиксели*Кадры) : 0.300
    Размер потока : 3,98 Гбайт (70%)
    Библиотека кодирования : x264 core 148 r2638 7599210
    Настройки программы : cabac=1 / ref=12 / deblock=1:-3:-3 / analyse=0x3:0x133 / me=tesa / subme=11 / psy=1 / psy_rd=1.00:0.00 / mixed_ref=1 / me_range=24 / chroma_me=1 / trellis=2 / 8x8dct=1 / cqm=0 / deadzone=21,11 / fast_pskip=0 / chroma_qp_offset=-2 / threads=12 / lookahead_threads=3 / sliced_threads=0 / nr=0 / decimate=1 / interlaced=0 / bluray_compat=0 / constrained_intra=0 / bframes=10 / b_pyramid=2 / b_adapt=2 / b_bias=0 / direct=3 / weightb=1 / open_gop=0 / weightp=2 / keyint=240 / keyint_min=23 / scenecut=40 / intra_refresh=0 / rc_lookahead=60 / rc=crf / mbtree=0 / crf=15.9 / qcomp=0.73 / qpmin=0 / qpmax=69 / qpstep=4 / vbv_maxrate=62500 / vbv_bufsize=78125 / crf_max=0.0 / nal_hrd=none / filler=0 / ip_ratio=1.32 / pb_ratio=1.18 / aq=1:0.80
    Язык : English
    Default : Да
    Forced : Нет

    Аудио #1
    Идентификатор : 2
    Формат : AC-3
    Формат/Информация : Audio Coding 3
    Расширение режима : CM (complete main)
    Параметр Endianness формата : Big
    Идентификатор кодека : A_AC3
    Продолжительность : 1 ч. 55 м.
    Вид битрейта : Постоянный
    Битрейт : 640 Кбит/сек
    Каналы : 6 каналов
    Расположение каналов : Front: L C R, Side: L R, LFE
    Частота : 48,0 КГц
    Битовая глубина : 16 бит
    Метод сжатия : С потерями
    Размер потока : 531 Мбайт (9%)
    Заголовок : BD RUS
    Язык : Russian
    Default : Да
    Forced : Нет

    Аудио #2
    Идентификатор : 3
    Формат : AC-3
    Формат/Информация : Audio Coding 3
    Расширение режима : CM (complete main)
    Параметр Endianness формата : Big
    Идентификатор кодека : A_AC3
    Продолжительность : 1 ч. 55 м.
    Вид битрейта : Постоянный
    Битрейт : 640 Кбит/сек
    Каналы : 6 каналов
    Расположение каналов : Front: L C R, Side: L R, LFE
    Частота : 48,0 КГц
    Битовая глубина : 16 бит
    Метод сжатия : С потерями
    Размер потока : 531 Мбайт (9%)
    Заголовок : KvK
    Язык : Russian
    Default : Нет
    Forced : Нет

    Аудио #3
    Идентификатор : 4
    Формат : AC-3
    Формат/Информация : Audio Coding 3
    Расширение режима : CM (complete main)
    Параметр Endianness формата : Big
    Идентификатор кодека : A_AC3
    Продолжительность : 1 ч. 55 м.
    Вид битрейта : Постоянный
    Битрейт : 640 Кбит/сек
    Каналы : 6 каналов
    Расположение каналов : Front: L C R, Side: L R, LFE
    Частота : 48,0 КГц
    Битовая глубина : 16 бит
    Метод сжатия : С потерями
    Размер потока : 531 Мбайт (9%)
    Заголовок : Original
    Язык : English
    Default : Нет
    Forced : Нет

    Текст #1
    Идентификатор : 5
    Формат : UTF-8
    Идентификатор кодека : S_TEXT/UTF8
    Идентификатор кодека/Информация : UTF-8 Plain Text
    Заголовок : full
    Язык : Russian
    Default : Нет
    Forced : Нет

    Текст #2
    Идентификатор : 6
    Формат : UTF-8
    Идентификатор кодека : S_TEXT/UTF8
    Идентификатор кодека/Информация : UTF-8 Plain Text
    Заголовок : full
    Язык : English
    Default : Нет
    Forced : Нет

    Текст #3
    Идентификатор : 7
    Формат : UTF-8
    Идентификатор кодека : S_TEXT/UTF8
    Идентификатор кодека/Информация : UTF-8 Plain Text
    Заголовок : SDH
    Язык : English
    Default : Нет
    Forced : Нет

    Меню
    00:00:00.000 : en:00:00:00.000
    00:10:41.683 : en:00:10:41.683
    00:21:07.308 : en:00:21:07.308
    00:29:12.876 : en:00:29:12.876
    00:40:12.744 : en:00:40:12.744
    00:50:50.464 : en:00:50:50.464
    01:01:02.033 : en:01:01:02.033
    01:10:15.420 : en:01:10:15.420
    01:19:59.086 : en:01:19:59.086
    01:29:40.709 : en:01:29:40.709
    01:40:10.338 : en:01:40:10.338
    01:48:35.801 : en:01:48:35.801
    01:50:49.977 : en:01:50:49.977
9.3 из 10
голосов: 12
/10
/10
karta 1-10-2016, 00:59

avs-23 | 22-08-2016, 10:27 | Статус: Оффлайн

Хороший фильм!С удовольствием потратил два часа жизни.=)
Информация
Посетители, находящиеся в группе Гости, не могут оставлять комментарии к данной публикации.