Панель пользователя
Регистрация

Воспользуйтесь социальными сетями для входа на https://freerutor.com

vk odnoklassniki facebook mailru yandex google
Популярное
Счетчик
Голосуй за нас
VIP на сайте
Популярное
Товары интернет магазина
загрузка...

Бэтмен против Супермена: На заре справедливости (2016) BDRip 720p | Расширенная версия

Бэтмен против Супермена: На заре справедливости (2016) BDRip 720p | Расширенная версия
Участники торрент обмена
Сидов Пиров Скачали
13 0 1279
Характеристика
Размер Файлы
12.25 GB
Релиз группа
Поделиться раздачей
Фильмы (720,1080,Blu-Ray)
Наименование: Бэтмен против Супермена: На заре справедливости
Оригинальное наименование: Batman v Superman: Dawn of Justice
Категория: фантастика, боевик, приключения
Произведено: США
Режиссер постановщик: Зак Снайдер
В главных ролях: Генри Кавилл , Бен Аффлек , Галь Гадот , Эми Адамс , Джесси Айзенберг , Джереми Айронс , Дайан Лэйн , Лоренс Фишбёрн , Холли Хантер , Скут МакНэри , Каллэн Мулвей , Тао Окамото
Краткое описание: Опасаясь, что действия богоподобного супергероя так и останутся бесконтрольными, грозный и могущественный страж Готэм Сити бросает вызов самому почитаемому в наши дни спасителю Метрополиса, в то время как весь остальной мир решает, какой герой ему по-настоящему нужен. И пока Бэтмен и Супермен пребывают в состоянии войны друг с другом, возникает новая угроза, которая ставит человечество под самую большую опасность, с которой оно когда-либо сталкивалось.
  • Видео данные: MPEG-4 AVC, 8 330 Кбит/с, 1280x534
    Аудио данные: Русский (AC3, 6 ch, 640 Кбит/с), английский (АС3, 6 ch, 640 Кбит/с)
    Перевод: Профессиональный (многоголосый) (FocusStudio)
    Продолжительность: 03:02:33
    Субтитры: русские (FocusStudio), английские (FULL), английские (SDH)
  • Бэтмен против Супермена: На заре справедливости (2016) BDRip 720p | Расширенная версия Бэтмен против Супермена: На заре справедливости (2016) BDRip 720p | Расширенная версия Бэтмен против Супермена: На заре справедливости (2016) BDRip 720p | Расширенная версия
  • Общее
    Уникальный идентификатор : 234039067847204201748429755402083609491 (0xB01248EEB455F9C1B2B82FE0694FAB93)
    Полное имя : D:downloadBatman v Superman - Dawn of Justice 2016 Extended Cut. BDRip 720р by schultz R.G.Resident.mkv
    Формат : Matroska
    Версия формата : Version 4 / Version 2
    Размер файла : 12,2 Гбайт
    Продолжительность : 3 ч. 2 м.
    Общий поток : 9605 Кбит/сек
    Дата кодирования : UTC 2016-07-27 16:07:57
    Программа кодирования : mkvmerge v8.9.0 ('Father Daughter') 64bit
    Библиотека кодирования : libebml v1.3.3 + libmatroska v1.4.4
    DURATION : 02:53:23.608000000
    NUMBER_OF_FRAMES : 1913
    NUMBER_OF_BYTES : 60027
    _STATISTICS_WRITING_APP : mkvmerge v8.9.0 ('Father Daughter') 64bit
    _STATISTICS_WRITING_DATE_UTC : 2016-07-27 16:07:57
    _STATISTICS_TAGS : BPS DURATION NUMBER_OF_FRAMES NUMBER_OF_BYTES

    Видео
    Идентификатор : 1
    Формат : AVC
    Формат/Информация : Advanced Video Codec
    Профиль формата : High@L4.1
    Параметр CABAC формата : Да
    Параметр ReFrames формата : 11 кадров
    Идентификатор кодека : V_MPEG4/ISO/AVC
    Продолжительность : 3 ч. 2 м.
    Битрейт : 8330 Кбит/сек
    Ширина : 1280 пикселей
    Высота : 534 пикселя
    Соотношение сторон : 2,40:1
    Режим частоты кадров : Постоянный
    Частота кадров : 23,976 кадра/сек
    Цветовое пространство : YUV
    Субдискретизация насыщенности : 4:2:0
    Битовая глубина : 8 бит
    Тип развёртки : Прогрессивная
    Бит/(Пиксели*Кадры) : 0.508
    Размер потока : 10,4 Гбайт (85%)
    Библиотека кодирования : x264 core 146 r2538 121396c
    Настройки программы : cabac=1 / ref=11 / deblock=1:-3:-3 / analyse=0x3:0x113 / me=umh / subme=11 / psy=1 / psy_rd=1.00:0.00 / mixed_ref=1 / me_range=48 / chroma_me=1 / trellis=2 / 8x8dct=1 / cqm=0 / deadzone=21,11 / fast_pskip=0 / chroma_qp_offset=-2 / threads=12 / lookahead_threads=3 / sliced_threads=0 / nr=0 / decimate=0 / interlaced=0 / bluray_compat=0 / constrained_intra=0 / bframes=12 / b_pyramid=2 / b_adapt=2 / b_bias=0 / direct=3 / weightb=1 / open_gop=0 / weightp=2 / keyint=240 / keyint_min=23 / scenecut=40 / intra_refresh=0 / rc_lookahead=40 / rc=2pass / mbtree=1 / bitrate=8330 / ratetol=1.0 / qcomp=0.60 / qpmin=0 / qpmax=69 / qpstep=4 / cplxblur=20.0 / qblur=0.5 / vbv_maxrate=14000 / vbv_bufsize=14000 / nal_hrd=none / filler=0 / ip_ratio=1.40 / aq=1:1.00
    Язык : English
    Default : Да
    Forced : Нет
    DURATION : 03:02:33.669000000
    NUMBER_OF_FRAMES : 262625
    NUMBER_OF_BYTES : 11395512568
    _STATISTICS_WRITING_APP : mkvmerge v8.9.0 ('Father Daughter') 64bit
    _STATISTICS_WRITING_DATE_UTC : 2016-07-27 16:07:57
    _STATISTICS_TAGS : BPS DURATION NUMBER_OF_FRAMES NUMBER_OF_BYTES

    Аудио #1
    Идентификатор : 2
    Формат : AC-3
    Формат/Информация : Audio Coding 3
    Расширение режима : CM (complete main)
    Параметр Endianness формата : Big
    Идентификатор кодека : A_AC3
    Продолжительность : 3 ч. 2 м.
    Вид битрейта : Постоянный
    Битрейт : 640 Кбит/сек
    Каналы : 6 каналов
    Расположение каналов : Front: L C R, Side: L R, LFE
    Частота : 48,0 КГц
    Битовая глубина : 16 бит
    Метод сжатия : С потерями
    Размер потока : 836 Мбайт (7%)
    Язык : Russian
    Default : Да
    Forced : Нет

    Аудио #2
    Идентификатор : 3
    Формат : AC-3
    Формат/Информация : Audio Coding 3
    Расширение режима : CM (complete main)
    Параметр Endianness формата : Big
    Идентификатор кодека : A_AC3
    Продолжительность : 3 ч. 2 м.
    Вид битрейта : Постоянный
    Битрейт : 640 Кбит/сек
    Каналы : 6 каналов
    Расположение каналов : Front: L C R, Side: L R, LFE
    Частота : 48,0 КГц
    Битовая глубина : 16 бит
    Метод сжатия : С потерями
    Размер потока : 836 Мбайт (7%)
    Язык : English
    Default : Нет
    Forced : Нет

    Текст #1
    Идентификатор : 4
    Формат : UTF-8
    Идентификатор кодека : S_TEXT/UTF8
    Идентификатор кодека/Информация : UTF-8 Plain Text
    Заголовок : FocusStudio
    Язык : Russian
    Default : Нет
    Forced : Нет

    Текст #2
    Идентификатор : 5
    Формат : UTF-8
    Идентификатор кодека : S_TEXT/UTF8
    Идентификатор кодека/Информация : UTF-8 Plain Text
    Заголовок : Full
    Язык : English
    Default : Нет
    Forced : Нет

    Текст #3
    Идентификатор : 6
    Формат : UTF-8
    Идентификатор кодека : S_TEXT/UTF8
    Идентификатор кодека/Информация : UTF-8 Plain Text
    Заголовок : Full SDH
    Язык : English
    Default : Нет
    Forced : Нет

    Меню
    00:00:00.000 : en:00:00:00.000
    00:10:10.652 : en:00:10:10.652
    00:27:00.661 : en:00:27:00.661
    00:37:49.225 : en:00:37:49.225
    00:46:54.520 : en:00:46:54.520
    01:02:04.971 : en:01:02:04.971
    01:14:10.613 : en:01:14:10.613
    01:28:07.115 : en:01:28:07.115
    01:41:46.642 : en:01:41:46.642
    01:53:52.617 : en:01:53:52.617
    02:02:58.079 : en:02:02:58.079
    02:15:04.054 : en:02:15:04.054
    02:27:55.075 : en:02:27:55.075
    02:36:51.444 : en:02:36:51.444
    02:48:27.514 : en:02:48:27.514
    02:54:43.765 : en:02:54:43.765
8.3 из 10
голосов: 8
/10
/10
Раздачу отредактировал: SuslOFF - 27-09-2016, 08:28
По причине: (без рекламы)
schultz 27-07-2016, 21:00
Информация
Посетители, находящиеся в группе Гости, не могут оставлять комментарии к данной публикации.