Панель пользователя
Регистрация

Воспользуйтесь социальными сетями для входа на https://freerutor.com

vk odnoklassniki facebook mailru yandex google
Популярное
Счетчик
Голосуй за нас
VIP на сайте
Популярное
Товары интернет магазина
загрузка...

Хроники Шаннары (1 сезон 1-10 серии из 10) (2016) HDRip-AVC | AlexFilm

Хроники Шаннары (1 сезон 1-10 серии из 10) (2016) HDRip-AVC | AlexFilm
Участники торрент обмена
Сидов Пиров Скачали
1 0 49
Характеристика
Размер Файлы
10.97 GB
Релиз группа
Поделиться раздачей
Зарубежные сериалы
Наименование: Хроники Шаннары
Оригинальное наименование: The Shannara Chronicles
Категория: фантастика, фэнтези, приключения
Произведено: США
Режиссер постановщик: Брэд Тернер , Джонатан Либесман , Джеймс Маршалл
В главных ролях: Остин Роберт Батлер (Wil Ohmsford), Ивана Бакеро (Eretria), Ману Беннетт (Allanon), Аарон Якубенко (Ander Elessedil), Поппи Дрейтон (Amberle Elessedil), Эмилия Бёрнс (Commander Tilton), Маркус Ванко (Bandon), Джед Брофи (The Dagda Mor), Дэниэл МакФерсон (Arion Elessedil), Джон Рис-Дэвис (Eventine Elessedil), Брук Уильямс (Catania), Джеймс Римар (Cephelo)
Краткое описание: События сериала происходят в далёком будущем. Войны разделили Северную Америку на 4 части. На какой-то из них обитают эльфы, на иной — люди, на третьей — тролли и на четвёртой — дворфы. Основными персонажами сериала окажутся отпрыски древнего рода эльфов — Шаннара. Именно от них будет зависеть будущая судьба планеты…
  • Видео данные: MPEG-4 AVC, 2900 Кбит/с, 1024x576
    Аудио данные: Русский (AC3, 6 ch, 448 Кбит/с), английский (АС3, 6 ch, 448 Кбит/с)
    Перевод: Профессиональный (многоголосый) AlexFilm
    Продолжительность:00:45:00 х 10
    Субтитры: английские (FULL), английские (SDH)
  • Хроники Шаннары (1 сезон 1-10 серии из 10) (2016) HDRip-AVC | AlexFilm Хроники Шаннары (1 сезон 1-10 серии из 10) (2016) HDRip-AVC | AlexFilm Хроники Шаннары (1 сезон 1-10 серии из 10) (2016) HDRip-AVC | AlexFilm
  • General
    Unique ID : 230024180488543503688241559390157500171 (0xAD0D0BB3E2F99CB091EB7DBE529F6F0B)
    Complete name : D:downloadThe.Shannara.ChroniclesThe.Shannara.Chronicles.S01E01.2016. HDRip-AVC by schultz R.G.Resident.mkv
    Format : Matroska
    Format version : Version 4 / Version 2
    File size : 1.09 GiB
    Duration : 41mn 10s
    Overall bit rate : 3 797 Kbps
    Encoded date : UTC 2016-07-24 15:21:30
    Writing application : mkvmerge v8.9.0 ('Father Daughter') 64bit
    Writing library : libebml v1.3.3 + libmatroska v1.4.4
    DURATION : 00:40:15.747000000
    NUMBER_OF_FRAMES : 437
    NUMBER_OF_BYTES : 13226
    _STATISTICS_WRITING_APP : mkvmerge v8.9.0 ('Father Daughter') 64bit
    _STATISTICS_WRITING_DATE_UTC : 2016-07-24 15:21:30
    _STATISTICS_TAGS : BPS DURATION NUMBER_OF_FRAMES NUMBER_OF_BYTES

    Video
    ID : 1
    Format : AVC
    Format/Info : Advanced Video Codec
    Format profile : High@L4.1
    Format settings, CABAC : Yes
    Format settings, ReFrames : 12 frames
    Codec ID : V_MPEG4/ISO/AVC
    Duration : 41mn 10s
    Bit rate : 2 900 Kbps
    Width : 1 024 pixels
    Height : 576 pixels
    Display aspect ratio : 16:9
    Frame rate : 23.976 fps
    Color space : YUV
    Chroma subsampling : 4:2:0
    Bit depth : 8 bits
    Scan type : Progressive
    Bits/(Pixel*Frame) : 0.205
    Stream size : 832 MiB (74%)
    Writing library : x264 core 146 r2538 121396c
    Encoding settings : cabac=1 / ref=12 / deblock=1:-3:-3 / analyse=0x3:0x113 / me=umh / subme=11 / psy=1 / psy_rd=1.00:0.00 / mixed_ref=1 / me_range=48 / chroma_me=1 / trellis=2 / 8x8dct=1 / cqm=0 / deadzone=21,11 / fast_pskip=0 / chroma_qp_offset=-2 / threads=12 / lookahead_threads=3 / sliced_threads=0 / nr=0 / decimate=0 / interlaced=0 / bluray_compat=0 / constrained_intra=0 / bframes=13 / b_pyramid=2 / b_adapt=2 / b_bias=0 / direct=3 / weightb=1 / open_gop=0 / weightp=2 / keyint=240 / keyint_min=23 / scenecut=40 / intra_refresh=0 / rc_lookahead=40 / rc=2pass / mbtree=1 / bitrate=2900 / ratetol=1.0 / qcomp=0.60 / qpmin=0 / qpmax=69 / qpstep=4 / cplxblur=20.0 / qblur=0.5 / vbv_maxrate=14000 / vbv_bufsize=14000 / nal_hrd=none / filler=0 / ip_ratio=1.40 / aq=1:1.00
    Language : English
    Default : Yes
    Forced : No
    DURATION : 00:41:10.180000000
    NUMBER_OF_FRAMES : 59225
    NUMBER_OF_BYTES : 895190667
    _STATISTICS_WRITING_APP : mkvmerge v8.9.0 ('Father Daughter') 64bit
    _STATISTICS_WRITING_DATE_UTC : 2016-07-24 15:21:30
    _STATISTICS_TAGS : BPS DURATION NUMBER_OF_FRAMES NUMBER_OF_BYTES

    Audio #1
    ID : 2
    Format : AC-3
    Format/Info : Audio Coding 3
    Mode extension : CM (complete main)
    Codec ID : A_AC3
    Duration : 41mn 10s
    Bit rate mode : Constant
    Bit rate : 448 Kbps
    Channel(s) : 6 channels
    Channel positions : Front: L C R, Side: L R, LFE
    Sampling rate : 48.0 KHz
    Bit depth : 16 bits
    Compression mode : Lossy
    Stream size : 132 MiB (12%)
    Language : Russian
    Default : Yes
    Forced : No

    Audio #2
    ID : 3
    Format : AC-3
    Format/Info : Audio Coding 3
    Mode extension : CM (complete main)
    Codec ID : A_AC3
    Duration : 41mn 10s
    Bit rate mode : Constant
    Bit rate : 448 Kbps
    Channel(s) : 6 channels
    Channel positions : Front: L C R, Side: L R, LFE
    Sampling rate : 48.0 KHz
    Bit depth : 16 bits
    Compression mode : Lossy
    Stream size : 132 MiB (12%)
    Language : English
    Default : No
    Forced : No

    Text #1
    ID : 4
    Format : UTF-8
    Codec ID : S_TEXT/UTF8
    Codec ID/Info : UTF-8 Plain Text
    Title : FULL
    Language : English
    Default : No
    Forced : No

    Text #2
    ID : 5
    Format : UTF-8
    Codec ID : S_TEXT/UTF8
    Codec ID/Info : UTF-8 Plain Text
    Title : SDH
    Language : English
    Default : No
    Forced : No

    Menu
    00:00:00.000 : en:00:00:00.000
    00:08:04.109 : en:00:08:04.109
    00:13:25.221 : en:00:13:25.221
    00:19:06.854 : en:00:19:06.854
    00:26:43.435 : en:00:26:43.435
    00:31:37.604 : en:00:31:37.604
7.0 из 10
голосов: 3
/10
/10
schultz 26-07-2016, 21:17
Информация
Посетители, находящиеся в группе Гости, не могут оставлять комментарии к данной публикации.